+ Reply to Thread
Results 1 to 2 of 2
  1. #1
    Administrators Duckload.us's Avatar
    Join Date
    Dec 2010
    Posts
    106,925
    Thanks
    9
    Thanked 111,422 Times in 51,820 Posts

    Question [ฝรั่ง]-[4K.HDR.REMUX].Fantastic.Four.2015.2160p.BluRay.HEVC.DTS-HD.MA.7.1-COASTER Thai5.1 [Modified]-[พากย์ไทย บรรยายไทย]


    Fantastic Four (2015) : แฟนแทสติก โฟร์
    ภาพยนตร์เรื่อง Fantastic Four เป็นผลงานร่วมสมัยที่นำทีมซุปเปอร์ฮีโร่ต้นฉบับของมา ร์เวลที่มีการปรากฏโฉมอย่างยาวนานมาสร้างใหม่
    โดยบอกเล่าเรื่องราวของเด็กวัยรุ่นธรรมดา 4 คนที่สามารถหายตัวสลับเข้าไปในโลกที่มีความซับซ้อนแล ะอันตรายได้
    ซึ่งร่างกายของพวกเขาจะเปลี่ยนแปลงไปอย่างน่าทึ่ง ชีวิตพวกเขาพลิกผันไปอย่างไม่อาจย้อนเวลากลับไปได้
    ทั้งทีมต้องศึกษาวิธีควบคุมความสามารถใหม่ของพวกเขา และร่วมมือกันปกป้องโลกจากเพื่อนเก่าที่กลายมาเป็นศั ตรู!!!


    [4K.HDR.REMUX].Fantastic.Four.2015.2160p.BluRay.HEVC.DTS-HD.MA.7.1-COASTER_Thai5.1.
    Thai Audio : NongZEZA






    Format : Matroska
    File size : 35.3 GiB
    Duration : 1h 39mn
    Overall bit rate : 50.5 Mbps

    Video
    ID : 1
    Format : HEVC
    Format/Info : High Efficiency Video Coding
    Format profile : Main [email protected]@High
    Codec ID : V_MPEGH/ISO/HEVC
    Duration : 1h 39mn
    Bit rate : 45.0 Mbps
    Width : 3 840 pixels
    Height : 2 160 pixels
    Display aspect ratio : 16:9
    Frame rate mode : Constant
    Frame rate : 23.976 (24000/1001) fps
    Color space : YUV
    Chroma subsampling : 4:2:0
    Bit depth : 10 bits
    Bits/(Pixel*Frame) : 0.226
    Stream size : 31.4 GiB (89%)
    Writing library : ATEME Titan KFE 3.7.1 (4.7.1.1002)
    Default : No
    Forced : No
    Color range : Limited
    Color primaries : BT.2020
    Matrix coefficients : BT.2020 non-constant

    Audio #1
    ID : 2
    Format : DTS
    Format/Info : Digital Theater Systems
    Format profile : MA / ES Matrix / Core
    Mode : 16
    Format settings, Endianness : Big
    Codec ID : A_DTS
    Duration : 1h 39mn
    Bit rate mode : Variable / Constant / Constant
    Bit rate : 4 937 Kbps / 1 509 Kbps / 1 509 Kbps
    Channel(s) : 8 channels / 7 channels / 6 channels
    Channel positions : Front: L C R, Side: L R, Back: L R, LFE / Front: L C R, Side: L R, Back: C, LFE / Front: L C R, Side: L R, LFE
    Sampling rate : 48.0 KHz
    Frame rate : 93.750 fps (512 spf)
    Bit depth : 24 bits
    Compression mode : Lossless / Lossy / Lossy
    Stream size : 3.45 GiB (10%)
    Title : [ORIGINAL] DTS-HD MA 7.1 @ 4883 kbps
    Language : English


    Audio #2
    ID : 3
    Format : AC-3
    Format/Info : Audio Coding 3
    Mode extension : CM (complete main)
    Format settings, Endianness : Big
    Codec ID : A_AC3
    Duration : 1h 39mn
    Bit rate mode : Constant
    Bit rate : 384 Kbps
    Channel(s) : 6 channels
    Channel positions : Front: L C R, Side: L R, LFE
    Sampling rate : 48.0 KHz
    Frame rate : 31.250 fps (1536 spf)
    Compression mode : Lossy
    Delay relative to video : 200ms
    Stream size : 275 MiB (1%)
    Title : Thai DVD Master 2k
    Language : Thai
    Default : Yes
    Forced : Yes

    Text #1
    ID : 4
    Format : PGS
    Muxing mode : zlib
    Codec ID : S_HDMV/PGS
    Codec ID/Info : Picture based subtitle format used on BDs/HD-DVDs
    Duration : 14s 348ms
    Bit rate : 50.9 Kbps
    Count of elements : 10
    Stream size : 89.2 KiB (0%)
    Title : Forced
    Language : English

    Text #2
    ID : 5
    Format : PGS
    Muxing mode : zlib
    Codec ID : S_HDMV/PGS
    Codec ID/Info : Picture based subtitle format used on BDs/HD-DVDs
    Duration : 1h 38mn
    Bit rate : 425 bps
    Count of elements : 22
    Stream size : 308 KiB (0%)
    Title : Forced
    Language : Ukrainian

    Text #3
    ID : 6
    Format : PGS
    Muxing mode : zlib
    Codec ID : S_HDMV/PGS
    Codec ID/Info : Picture based subtitle format used on BDs/HD-DVDs
    Duration : 1h 32mn
    Bit rate : 36.7 Kbps
    Count of elements : 2904
    Stream size : 24.2 MiB (0%)
    Title : Full-length
    Language : English

    Text #4
    ID : 7
    Format : VobSub
    Muxing mode : zlib
    Codec ID : S_VOBSUB
    Codec ID/Info : Picture based subtitle format used on DVDs
    Duration : 1h 39mn
    Bit rate : 7 007 bps
    Count of elements : 1207
    Stream size : 4.97 MiB (0%)
    Title : Thai 1080p
    Language : Thai
    Default : Yes
    Forced : Yes

    Text #5
    ID : 8
    Format : VobSub
    Muxing mode : zlib
    Codec ID : S_VOBSUB
    Codec ID/Info : Picture based subtitle format used on DVDs
    Duration : 1h 39mn
    Bit rate : 6 995 bps
    Count of elements : 1207
    Stream size : 4.96 MiB (0%)
    Title : Thai 1080p Yellow
    Language : Thai

    Text #6
    ID : 9
    Format : VobSub
    Muxing mode : zlib
    Codec ID : S_VOBSUB
    Codec ID/Info : Picture based subtitle format used on DVDs
    Duration : 1h 39mn
    Bit rate : 7 054 bps
    Count of elements : 1207
    Stream size : 5.00 MiB (0%)
    Title : Thai 1080p Out
    Language : Thai


    Text #7
    ID : 10
    Format : VobSub
    Muxing mode : zlib
    Codec ID : S_VOBSUB
    Codec ID/Info : Picture based subtitle format used on DVDs
    Duration : 1h 39mn
    Bit rate : 9 630 bps
    Count of elements : 1207
    Stream size : 6.83 MiB (0%)
    Title : Thai 1080p BIG
    Language : Thai


    Text #8
    ID : 11
    Format : VobSub
    Muxing mode : zlib
    Codec ID : S_VOBSUB
    Codec ID/Info : Picture based subtitle format used on DVDs
    Duration : 1h 39mn
    Bit rate : 9 694 bps
    Count of elements : 1207
    Stream size : 6.88 MiB (0%)
    Title : Thai 1080p Out BIG
    Language : Thai
    Text #9
    ID : 12
    Format : PGS
    Muxing mode : zlib
    Codec ID : S_HDMV/PGS
    Codec ID/Info : Picture based subtitle format used on BDs/HD-DVDs
    Duration : 1h 39mn
    Bit rate : 30.0 Kbps
    Count of elements : 2416
    Stream size : 21.3 MiB (0%)
    Title : Thai PGS 2k
    Language : Thai
    Text #10
    ID : 13
    Format : PGS
    Muxing mode : zlib
    Codec ID : S_HDMV/PGS
    Codec ID/Info : Picture based subtitle format used on BDs/HD-DVDs
    Duration : 1h 39mn
    Bit rate : 30.0 Kbps
    Count of elements : 2416
    Stream size : 21.3 MiB (0%)
    Title : Thai PGS Yellow 2k
    Language : Thai
    Text #11
    ID : 14
    Format : PGS
    Muxing mode : zlib
    Codec ID : S_HDMV/PGS
    Codec ID/Info : Picture based subtitle format used on BDs/HD-DVDs
    Duration : 1h 39mn
    Bit rate : 30.4 Kbps
    Count of elements : 2416
    Stream size : 21.5 MiB (0%)
    Title : Thai PGS Out 2k
    Language : Thai
    Text #12
    ID : 15
    Format : PGS
    Muxing mode : zlib
    Codec ID : S_HDMV/PGS
    Codec ID/Info : Picture based subtitle format used on BDs/HD-DVDs
    Duration : 1h 32mn
    Bit rate : 36.7 Kbps
    Count of elements : 2904
    Stream size : 24.2 MiB (0%)
    Title : SDH
    Language : English
    Text #13
    ID : 16
    Format : UTF-8
    Codec ID : S_TEXT/UTF8
    Codec ID/Info : UTF-8 Plain Text
    Duration : 14s 348ms
    Bit rate : 89 bps
    Count of elements : 5
    Stream size : 161 Bytes (0%)
    Title : Forced SRT
    Language : English
    Text #14
    ID : 17
    Format : PGS
    Muxing mode : zlib
    Codec ID : S_HDMV/PGS
    Codec ID/Info : Picture based subtitle format used on BDs/HD-DVDs
    Duration : 14s 348ms
    Bit rate : 50.9 Kbps
    Count of elements : 10
    Stream size : 89.2 KiB (0%)
    Title : Forced SUP
    Language : English


    Download: cornfile
    http://cornfile.com/mamid34pjnar
    Download: mekafile
    http://www.mekafile.com/dl.php?f=at6eb4byPjwM

  2. #2
    Senior Member
    Join Date
    Jun 2012
    Posts
    1,209
    Thanks
    0
    Thanked 1 Time in 1 Post
    ขอบคุณครคับ

+ Reply to Thread

Thread Information

Users Browsing this Thread

There are currently 1 users browsing this thread. (0 members and 1 guests)

     

Posting Permissions

  • You may not post new threads
  • You may not post replies
  • You may not post attachments
  • You may not edit your posts