+ Reply to Thread
Results 1 to 2 of 2
  1. #1
    Administrators Duckload.us's Avatar
    Join Date
    Dec 2010
    Posts
    93,354
    Thanks
    9
    Thanked 95,795 Times in 46,103 Posts

    Question [ฝรั่ง]-The Fast And The Furious เร็ว..แรงทะลุนรก ภาค 1-8 (2001-2017) 1080p-DTS-Blu ray-AVC-H.264-AAA-[พากย์ไทย บรรยายไทย]

    The Fast and the Furious



    Rating: 6.7/10 Year: 2001 Genres: Action / Crime / Thriller Runtime: 106 min Language: English Director: Rob Cohen / Mel City Writers: Ken Li / Gary Scott Thompson / Gary Scott Thompson Cast: Paul Walker / Vin Diesel / Michelle Rodriguezโ€ฆ Plot:

    Los Angeles street racer Dominic Toretto falls under the suspicion of the LAPD as a string of high-speed electronics truck robberies rocks the area. Brian O'Connor, an officer of the LAPD, joins the ranks of Toretto's highly skilled racing crew undercover to convict Toretto. However, O'Connor finds himself both enamored with this new world and in love with Toretto's sister, Mia. As a rival racing crew gains strength, O'Connor must decide where his loyalty really lies. Written by rball4042; Car7


    The Fast And The Furious 1 เร็ว..แรงทะลุนรก (2001) 1080p
    พากย์ ไทย อังกฤษ DTS ไทย อังกฤษ AC-3 บรรยาย ไทย อังกฤษ
    SS = https://www.imgtrue.com/image/YIAuU8

    โดมินิค โทเร็ทโต.(วิน ดีเซล).ขับรถบนถนนแอลเอ ราวกับว่าเขาเป็นจ้าวถนน พร้อมด้วยพลพรรคทีมแข่งรถของเขา เขาใช้เวลาแต่ละวัน ปรับแต่งเครื่องยนต์รถแข่งให้มีสมรรถนะสูง เขาให้ความสำคัญกับหัวฉีดน้ำมัน ที่ควบคุมด้วยคอมพิวเตอร์ มากกว่ารูปลักษณ์และ.รุ่นของรถ ซึ่งทำให้รถพุ่งแรงราวกับบินได้ ในยามค่ำคืน โดมินิคจะขับจรวดบนดินของเขา ไปแข่งในสนามท้าดวล รถคันนี้ถ้าจะแข่งกับใคร เดิมพันแต่ละครั้งสูงถึง 10 , 000 เหรียญทีเดียว ที่นั่น สนามแข่งขันเปรียบเสมือนโรงละครบนท้องถนน เป็นชนกลุ่มหนึ่ง และ.เป็นสนามท้าประลอง ที่ทุกคนจะเติมพลังขับเคลื่อน ด้วยฮอร์โมนอะดรีนาลิน เซ็กซ์ และ.ความเร็วที่ไร้ขีดจำกัด ท่ามกลางกองเชียร์ โดมินิคโดดเด่นในลู่แข่ง ดังเช่นร็อคสตาร์คนหนึ่ง

    General
    Unique ID : 201128788403351051945490063510250779701 (0x974FFEE15FBC3652B53BB110BEE4F435)
    Complete name : The Fast And The Furious 1 เร็ว..แรงทะลุนรก (2001) 1080p.mkv
    Format : Matroska
    Format version : Version 4 / Version 2
    File size : 9.91 GiB
    Duration : 1h 46mn
    Overall bit rate : 13.3 Mbps
    Encoded date : UTC 2016-01-10 06:26:06
    Writing application : mkvmerge v8.2.0 ( World of Adventure ) 64bit
    Writing library : libebml v1.3.1 + libmatroska v1.4.2
    DURATION : 01:46:57.430000000
    NUMBER_OF_FRAMES : 601633
    NUMBER_OF_BYTES : 1210485596
    _STATISTICS_WRITING_APP : mkvmerge v8.2.0 ( World of Adventure ) 64bit
    _STATISTICS_WRITING_DATE_UTC : 2016-01-10 06:26:06
    _STATISTICS_TAGS : BPS DURATION NUMBER_OF_FRAMES NUMBER_OF_BYTES

    Video
    ID : 1
    Format : AVC
    Format/Info : Advanced Video Codec
    Format profile : [email protected]
    Format settings, CABAC : Yes
    Format settings, ReFrames : 4 frames
    Codec ID : V_MPEG4/ISO/AVC
    Duration : 1h 46mn
    Bit rate : 10.2 Mbps
    Width : 1 920 pixels
    Height : 816 pixels
    Display aspect ratio : 2.35:1
    Frame rate mode : Constant
    Frame rate : 23.976 fps
    Color space : YUV
    Chroma subsampling : 4:2:0
    Bit depth : 8 bits
    Scan type : Progressive
    Bits/(Pixel*Frame) : 0.271
    Stream size : 7.43 GiB (75%)
    Writing library : x264 core 66 r1115M 11863ac
    Encoding settings : cabac=1 / ref=4 / deblock=1:-1:-1 / analyse=0x3:0x113 / me=umh / subme=7 / psy_rd=1.0:0.0 / mixed_ref=1 / me_range=16 / chroma_me=1 / trellis=1 / 8x8dct=1 / cqm=0 / deadzone=21,11 / chroma_qp_offset=-2 / threads=6 / nr=0 / decimate=1 / mbaff=0 / bframes=16 / b_pyramid=1 / b_adapt=1 / b_bias=0 / direct=3 / wpredb=1 / keyint=250 / keyint_min=25 / scenecut=40(pre) / rc=2pass / bitrate=10196 / ratetol=1.0 / qcomp=0.60 / qpmin=10 / qpmax=51 / qpstep=4 / cplxblur=20.0 / qblur=0.5 / ip_ratio=1.40 / pb_ratio=1.30 / aq=1:1.00
    Language : English
    Default : Yes
    Forced : No
    DURATION : 01:46:57.296000000
    NUMBER_OF_FRAMES : 153861
    NUMBER_OF_BYTES : 8178406104
    _STATISTICS_WRITING_APP : mkvmerge v8.2.0 ( World of Adventure ) 64bit
    _STATISTICS_WRITING_DATE_UTC : 2016-01-10 06:26:06
    _STATISTICS_TAGS : BPS DURATION NUMBER_OF_FRAMES NUMBER_OF_BYTES

    Audio #1
    ID : 2
    Format : DTS
    Format/Info : Digital Theater Systems
    Mode : 16
    Format settings, Endianness : Big
    Codec ID : A_DTS
    Duration : 1h 46mn
    Bit rate mode : Constant
    Bit rate : 768 Kbps
    Channel(s) : 6 channels
    Channel positions : Front: L C R, Side: L R, LFE
    Sampling rate : 48.0 KHz
    Bit depth : 24 bits
    Compression mode : Lossy
    Stream size : 588 MiB (6%)
    Title : Thai DTS
    Language : Thai
    Default : Yes
    Forced : Yes

    Audio #2
    ID : 3
    Format : DTS
    Format/Info : Digital Theater Systems
    Mode : 16
    Format settings, Endianness : Big
    Codec ID : A_DTS
    Duration : 1h 46mn
    Bit rate mode : Constant
    Bit rate : 1 509 Kbps
    Channel(s) : 6 channels
    Channel positions : Front: L C R, Side: L R, LFE
    Sampling rate : 48.0 KHz
    Bit depth : 24 bits
    Compression mode : Lossy
    Stream size : 1.13 GiB (11%)
    Title : Eng DTS
    Language : English
    Default : No
    Forced : No

    Audio #3
    ID : 4
    Format : AC-3
    Format/Info : Audio Coding 3
    Mode extension : CM (complete main)
    Format settings, Endianness : Big
    Codec ID : A_AC3
    Duration : 1h 46mn
    Bit rate mode : Constant
    Bit rate : 384 Kbps
    Channel(s) : 6 channels
    Channel positions : Front: L C R, Side: L R, LFE
    Sampling rate : 48.0 KHz
    Compression mode : Lossy
    Delay relative to video : 500ms
    Stream size : 294 MiB (3%)
    Title : Thai AC-3
    Language : Thai
    Default : No
    Forced : No

    Audio #4
    ID : 5
    Format : AC-3
    Format/Info : Audio Coding 3
    Mode extension : CM (complete main)
    Format settings, Endianness : Big
    Codec ID : A_AC3
    Duration : 1h 46mn
    Bit rate mode : Constant
    Bit rate : 384 Kbps
    Channel(s) : 6 channels
    Channel positions : Front: L C R, Side: L R, LFE
    Sampling rate : 48.0 KHz
    Compression mode : Lossy
    Stream size : 294 MiB (3%)
    Title : Eng AC-3
    Language : English
    Default : No
    Forced : No

    Text #1
    ID : 6
    Format : VobSub
    Muxing mode : zlib
    Codec ID : S_VOBSUB
    Codec ID/Info : Picture based subtitle format used on DVDs
    Title : Thai
    Language : Thai
    Default : No
    Forced : No

    Text #4
    ID : 9
    Format : PGS
    Muxing mode : zlib
    Codec ID : S_HDMV/PGS
    Codec ID/Info : Picture based subtitle format used on BDs/HD-DVDs
    Title : Thai PGS
    Language : Thai
    Default : No
    Forced : No

    Text #5
    ID : 10
    Format : UTF-8
    Codec ID : S_TEXT/UTF8
    Codec ID/Info : UTF-8 Plain Text
    Title : Eng SRT
    Language : English
    Default : No
    Forced : No
    xxxxxxxxxxxxxxxxxxxxxxxxxxxxxxxxxxxxxxxxxxxxxxxxxx xxxxxxxxxxxxxxxxxxxxxxxxxxxx

    The Fast And The Furious 2 เร็ว..แรงทะลุนรก 2 Fast 2 Furious (2003) 1080p
    พากย์ ไทย อังกฤษ DTS ไทย อังกฤษ AC-3 บรรยาย ไทย อังกฤษ
    SS = https://www.imgtrue.com/image/YIAGPM

    ระเบิดความแรงท้านรกกันอีกครั้ง กับภาพยนตร์แนวแอ็คชั่นของการซิ่งบนถนนไมอามี่อันร้อ นระอุ พร้อมด้วยความบ้าบิ่นดุเดือด และ.สาวเซ็กซี่อันร้อนแรงที่คุณต้องยอมสยบ...มันคือเ 2 2 Fast 2 Furious จากผู้กำกับของภาคแรกที่ได้เสนอชื่อเข้าชิงรางวัลออส การ์มาแล้ว จอห์น ซิงเกิลตัน.(Boyz n Da Hood).จะนำคุณเข้าสู่ความระทึกจนฉุดไม่อยู่ ไบรอัน โอคอนเนอร์.(พอล วอลเกอร์).ถูกปลดออกจากตำแหน่ง หลังจากทำงานล้มเหลวปล่อยให้หัวหน้าของแก๊งค์ซิ่งในค ดีใหญ่ที่เขาติดตามอยู่ขโมยรถหลบหนีไป บัดนี้ เขากลับมาที่ไมอามี่อีกครั้งกับเพื่อนซี้เก่า โรมัน เพียร์ซ.(ไทรีส).ครั้งนี้ไบรอันต้องปลอมตัวเป็นสายลั บให้กับตำรวจ เพื่อลบความผิดครั้งเก่า โดยมีส่วนร่วมในการช่วยเหลือ โมนิก้า ฟูเอนเตส.(อีวา เมนเดส).สาวสวยเสน่ห์แรงเพื่อค้นหานักธุรกิจ ผู้อยู่เบื้องหลังวงการมาเฟีย เขาต้องลงแข่งอีกครั้ง แต่ครั้งนี้ เพื่อชีวิตของเขาเอง...

    General
    Unique ID : 186949453038472365894939389762864553787 (0x8CA527AC12710D70893218E4A2861F3B)
    Complete name : The Fast And The Furious 2 เร็ว..แรงทะลุนรก 2 Fast 2 Furious (2003) 1080p.mkv
    Format : Matroska
    Format version : Version 4 / Version 2
    File size : 10.1 GiB
    Duration : 1h 47mn
    Overall bit rate : 13.4 Mbps
    Encoded date : UTC 2016-01-10 11:07:32
    Writing application : mkvmerge v8.2.0 ( World of Adventure ) 64bit
    Writing library : libebml v1.3.1 + libmatroska v1.4.2
    DURATION : 01:34:50.742000000
    NUMBER_OF_FRAMES : 98
    NUMBER_OF_BYTES : 811103
    _STATISTICS_WRITING_APP : mkvmerge v8.2.0 ( World of Adventure ) 64bit
    _STATISTICS_WRITING_DATE_UTC : 2016-01-10 11:07:32
    _STATISTICS_TAGS : BPS DURATION NUMBER_OF_FRAMES NUMBER_OF_BYTES

    Video
    ID : 1
    Format : AVC
    Format/Info : Advanced Video Codec
    Format profile : [email protected]
    Format settings, CABAC : Yes
    Format settings, ReFrames : 4 frames
    Codec ID : V_MPEG4/ISO/AVC
    Duration : 1h 47mn
    Bit rate : 10.1 Mbps
    Width : 1 920 pixels
    Height : 816 pixels
    Display aspect ratio : 2.35:1
    Frame rate mode : Constant
    Frame rate : 23.976 fps
    Color space : YUV
    Chroma subsampling : 4:2:0
    Bit depth : 8 bits
    Scan type : Progressive
    Bits/(Pixel*Frame) : 0.269
    Stream size : 7.42 GiB (74%)
    Writing library : x264 core 66 r1115M 11863ac
    Encoding settings : cabac=1 / ref=4 / deblock=1:-1:-1 / analyse=0x3:0x113 / me=umh / subme=7 / psy_rd=1.0:0.0 / mixed_ref=1 / me_range=16 / chroma_me=1 / trellis=1 / 8x8dct=1 / cqm=0 / deadzone=21,11 / chroma_qp_offset=-2 / threads=6 / nr=0 / decimate=1 / mbaff=0 / bframes=16 / b_pyramid=1 / b_adapt=1 / b_bias=0 / direct=3 / wpredb=1 / keyint=250 / keyint_min=25 / scenecut=40(pre) / rc=2pass / bitrate=10116 / ratetol=1.0 / qcomp=0.60 / qpmin=10 / qpmax=51 / qpstep=4 / cplxblur=20.0 / qblur=0.5 / ip_ratio=1.40 / pb_ratio=1.30 / aq=1:1.00
    Language : English
    Default : Yes
    Forced : No
    DURATION : 01:47:41.674000000
    NUMBER_OF_FRAMES : 154925
    NUMBER_OF_BYTES : 8170463557
    _STATISTICS_WRITING_APP : mkvmerge v8.2.0 ( World of Adventure ) 64bit
    _STATISTICS_WRITING_DATE_UTC : 2016-01-10 11:07:32
    _STATISTICS_TAGS : BPS DURATION NUMBER_OF_FRAMES NUMBER_OF_BYTES

    Audio #1
    ID : 2
    Format : DTS
    Format/Info : Digital Theater Systems
    Mode : 16
    Format settings, Endianness : Big
    Codec ID : A_DTS
    Duration : 1h 47mn
    Bit rate mode : Constant
    Bit rate : 768 Kbps
    Channel(s) : 6 channels
    Channel positions : Front: L C R, Side: L R, LFE
    Sampling rate : 48.0 KHz
    Bit depth : 24 bits
    Compression mode : Lossy
    Delay relative to video : 11ms
    Stream size : 592 MiB (6%)
    Title : Thai DTS
    Language : Thai
    Default : Yes
    Forced : Yes

    Audio #2
    ID : 3
    Format : DTS
    Format/Info : Digital Theater Systems
    Mode : 16
    Format settings, Endianness : Big
    Codec ID : A_DTS
    Duration : 1h 47mn
    Bit rate mode : Constant
    Bit rate : 1 509 Kbps
    Channel(s) : 6 channels
    Channel positions : Front: L C R, Side: L R, LFE
    Sampling rate : 48.0 KHz
    Bit depth : 24 bits
    Compression mode : Lossy
    Stream size : 1.14 GiB (11%)
    Title : Eng DTS
    Language : English
    Default : No
    Forced : No

    Audio #3
    ID : 4
    Format : AC-3
    Format/Info : Audio Coding 3
    Mode extension : CM (complete main)
    Format settings, Endianness : Big
    Codec ID : A_AC3
    Duration : 1h 47mn
    Bit rate mode : Constant
    Bit rate : 384 Kbps
    Channel(s) : 6 channels
    Channel positions : Front: L C R, Side: L R, LFE
    Sampling rate : 48.0 KHz
    Compression mode : Lossy
    Stream size : 296 MiB (3%)
    Title : Thai AC-3
    Language : Thai
    Default : No
    Forced : No

    Audio #4
    ID : 5
    Format : AC-3
    Format/Info : Audio Coding 3
    Mode extension : CM (complete main)
    Format settings, Endianness : Big
    Codec ID : A_AC3
    Duration : 1h 47mn
    Bit rate mode : Constant
    Bit rate : 384 Kbps
    Channel(s) : 6 channels
    Channel positions : Front: L C R, Side: L R, LFE
    Sampling rate : 48.0 KHz
    Compression mode : Lossy
    Stream size : 296 MiB (3%)
    Title : Eng AC-3
    Language : English
    Default : No
    Forced : No

    Audio #5
    ID : 6
    Format : AC-3
    Format/Info : Audio Coding 3
    Format profile : Dolby Digital
    Mode extension : CM (complete main)
    Format settings, Endianness : Big
    Codec ID : A_AC3
    Duration : 1h 47mn
    Bit rate mode : Constant
    Bit rate : 192 Kbps
    Channel(s) : 2 channels
    Channel positions : Front: L R
    Sampling rate : 48.0 KHz
    Compression mode : Lossy
    Stream size : 148 MiB (1%)
    Title : Eng Commentary
    Language : English
    Default : No
    Forced : No

    Text #1
    ID : 7
    Format : VobSub
    Muxing mode : zlib
    Codec ID : S_VOBSUB
    Codec ID/Info : Picture based subtitle format used on DVDs
    Title : Thai
    Language : Thai
    Default : No
    Forced : No

    Text #3
    ID : 9
    Format : PGS
    Muxing mode : zlib
    Codec ID : S_HDMV/PGS
    Codec ID/Info : Picture based subtitle format used on BDs/HD-DVDs
    Title : Thai PGS
    Language : Thai
    Default : No
    Forced : No

    Text #4
    ID : 10
    Format : UTF-8
    Codec ID : S_TEXT/UTF8
    Codec ID/Info : UTF-8 Plain Text
    Title : Eng SRT
    Language : English
    Default : No
    Forced : No
    xxxxxxxxxxxxxxxxxxxxxxxxxxxxxxxxxxxxxxxxxxxxxxxxxx xxxxxxxxxxxxxxxxxxxxxxxxxxxx

    The Fast And The Furious 3 เร็ว..แรงทะลุนรก Tokyo Drift (2006) 1080p
    พากย์ อังกฤษ DTS ไทย อังกฤษ AC-3 บรรยาย ไทย อังกฤษ
    SS = https://www.imgtrue.com/image/YIA0OD

    ฌอน บอสเวล ไอ้หนุ่มนักซิ่งเลือดร้อนที่ก่อคดีแบบไม่หยุดหย่อน จนแม่ต้องส่งไปอยู่กับพ่อของเขา ที่แยกทางกันไปอยู่ที่ญี่ปุ่น แทนการส่งตัว ฌอน ไปนอนในคุกที่นั่นเอง ฌอน ได้รู้จักการซิ่งแบบใหม่ที่เรียกว่า ดริฟท์ และ.มันได้เปลี่ยนแปลงชีวิตเขาไปนับตั้งแต่นั้น

    General
    Unique ID : 192586476639840583029663317535351519205 (0x90E2CE64BA14B03DA6B097F3089E37E5)
    Complete name : The Fast And The Furious 3 เร็ว..แรงทะลุนรก Tokyo Drift (2006) 1080p.mkv
    Format : Matroska
    Format version : Version 4 / Version 2
    File size : 9.50 GiB
    Duration : 1h 44mn
    Overall bit rate : 13.0 Mbps
    Encoded date : UTC 2016-01-10 10:25:21
    Writing application : mkvmerge v8.2.0 ( World of Adventure ) 64bit
    Writing library : libebml v1.3.1 + libmatroska v1.4.2
    DURATION : 01:44:14.176000000
    NUMBER_OF_FRAMES : 195443
    NUMBER_OF_BYTES : 300200448
    _STATISTICS_WRITING_APP : mkvmerge v8.2.0 ( World of Adventure ) 64bit
    _STATISTICS_WRITING_DATE_UTC : 2016-01-10 10:25:21
    _STATISTICS_TAGS : BPS DURATION NUMBER_OF_FRAMES NUMBER_OF_BYTES

    Video
    ID : 1
    Format : AVC
    Format/Info : Advanced Video Codec
    Format profile : [email protected]
    Format settings, CABAC : Yes
    Format settings, ReFrames : 4 frames
    Codec ID : V_MPEG4/ISO/AVC
    Duration : 1h 44mn
    Bit rate : 10.5 Mbps
    Width : 1 920 pixels
    Height : 816 pixels
    Display aspect ratio : 2.35:1
    Frame rate mode : Constant
    Frame rate : 23.976 fps
    Color space : YUV
    Chroma subsampling : 4:2:0
    Bit depth : 8 bits
    Scan type : Progressive
    Bits/(Pixel*Frame) : 0.280
    Stream size : 7.47 GiB (79%)
    Writing library : x264 core 66 r1115M 11863ac
    Encoding settings : cabac=1 / ref=4 / deblock=1:-1:-1 / analyse=0x3:0x113 / me=umh / subme=7 / psy_rd=1.0:0.0 / mixed_ref=1 / me_range=16 / chroma_me=1 / trellis=1 / 8x8dct=1 / cqm=0 / deadzone=21,11 / chroma_qp_offset=-2 / threads=6 / nr=0 / decimate=1 / mbaff=0 / bframes=16 / b_pyramid=1 / b_adapt=1 / b_bias=0 / direct=3 / wpredb=1 / keyint=250 / keyint_min=25 / scenecut=40(pre) / rc=2pass / bitrate=10502 / ratetol=1.0 / qcomp=0.60 / qpmin=10 / qpmax=51 / qpstep=4 / cplxblur=20.0 / qblur=0.5 / ip_ratio=1.40 / pb_ratio=1.30 / aq=1:1.00
    Language : English
    Default : Yes
    Forced : No
    DURATION : 01:44:14.008000000
    NUMBER_OF_FRAMES : 149946
    NUMBER_OF_BYTES : 8209315718
    _STATISTICS_WRITING_APP : mkvmerge v8.2.0 ( World of Adventure ) 64bit
    _STATISTICS_WRITING_DATE_UTC : 2016-01-10 10:25:21
    _STATISTICS_TAGS : BPS DURATION NUMBER_OF_FRAMES NUMBER_OF_BYTES

    Audio #1
    ID : 2
    Format : AC-3
    Format/Info : Audio Coding 3
    Mode extension : CM (complete main)
    Format settings, Endianness : Big
    Codec ID : A_AC3
    Duration : 1h 44mn
    Bit rate mode : Constant
    Bit rate : 448 Kbps
    Channel(s) : 6 channels
    Channel positions : Front: L C R, Side: L R, LFE
    Sampling rate : 48.0 KHz
    Compression mode : Lossy
    Stream size : 334 MiB (3%)
    Title : Thai AC-3
    Language : Thai
    Default : Yes
    Forced : Yes

    Audio #2
    ID : 3
    Format : DTS
    Format/Info : Digital Theater Systems
    Mode : 16
    Format settings, Endianness : Big
    Codec ID : A_DTS
    Duration : 1h 44mn
    Bit rate mode : Constant
    Bit rate : 1 509 Kbps
    Channel(s) : 6 channels
    Channel positions : Front: L C R, Side: L R, LFE
    Sampling rate : 48.0 KHz
    Bit depth : 24 bits
    Compression mode : Lossy
    Stream size : 1.10 GiB (12%)
    Title : Eng DTS
    Language : English
    Default : No
    Forced : No

    Audio #3
    ID : 4
    Format : AC-3
    Format/Info : Audio Coding 3
    Mode extension : CM (complete main)
    Format settings, Endianness : Big
    Codec ID : A_AC3
    Duration : 1h 44mn
    Bit rate mode : Constant
    Bit rate : 384 Kbps
    Channel(s) : 6 channels
    Channel positions : Front: L C R, Side: L R, LFE
    Sampling rate : 48.0 KHz
    Compression mode : Lossy
    Stream size : 286 MiB (3%)
    Title : Eng AC-3
    Language : English
    Default : No
    Forced : No

    Audio #4
    ID : 5
    Format : AC-3
    Format/Info : Audio Coding 3
    Format profile : Dolby Digital
    Mode extension : CM (complete main)
    Format settings, Endianness : Big
    Codec ID : A_AC3
    Duration : 1h 44mn
    Bit rate mode : Constant
    Bit rate : 192 Kbps
    Channel(s) : 2 channels
    Channel positions : Front: L R
    Sampling rate : 48.0 KHz
    Compression mode : Lossy
    Stream size : 143 MiB (1%)
    Title : Eng Commentary
    Language : English
    Default : No
    Forced : No

    Text #1
    ID : 6
    Format : VobSub
    Muxing mode : zlib
    Codec ID : S_VOBSUB
    Codec ID/Info : Picture based subtitle format used on DVDs
    Title : Thai
    Language : Thai
    Default : No
    Forced : No

    Text #4
    ID : 9
    Format : PGS
    Muxing mode : zlib
    Codec ID : S_HDMV/PGS
    Codec ID/Info : Picture based subtitle format used on BDs/HD-DVDs
    Title : Thai PGS
    Language : Thai
    Default : No
    Forced : No

    Text #5
    ID : 10
    Format : UTF-8
    Codec ID : S_TEXT/UTF8
    Codec ID/Info : UTF-8 Plain Text
    Title : Eng SRT
    Language : English
    Default : No
    Forced : No
    xxxxxxxxxxxxxxxxxxxxxxxxxxxxxxxxxxxxxxxxxxxxxxxxxx xxxxxxxxxxxxxxxxxxxxxxxxxxxx

    The Fast And The Furious 4 เร็ว..แรงทะลุนรก (2009) 1080p
    พากย์ ไทย อังกฤษ DTS ไทย อังกฤษ AC-3 บรรยาย ไทย อังกฤษ
    SS = https://www.imgtrue.com/image/YIADfa

    เป็นเวลานาน 8 ปีแล้ว นับแต่ที่โดมินิค โทเร็ตโต้ (ดีเซล) อดีตนักเลงหัวไม้ ขับรถข้ามชายแดนเม็กซิโก และกลายเป็นพวกหนีเข้าเมือง บัดนี้ ดอมอาศัยอยู่ในบ้านหลังเล็กๆ ริมชายหาดในสาธารณรัฐโดมินิกัน และใช้ชีวิตแบบที่ต้องคอยหลบหนี อยู่กับเล็ตตี้ (ร็อดริเกซ) หนึ่งเดียวจากอดีตของเขา ดอมพยายามเริ่มต้นชีวิตใหม่ แต่เขารู้ดีว่าทางการยังตามล่าเขาอยู่

    General
    Unique ID : 187352886983511538748738218527382458075 (0x8CF2DA8058673D70A6DCF3F68EAE4EDB)
    Complete name : The Fast And The Furious 4 เร็ว..แรงทะลุนรก (2009) 1080p.mkv
    Format : Matroska
    Format version : Version 4 / Version 2
    File size : 10.0 GiB
    Duration : 1h 46mn
    Overall bit rate : 13.4 Mbps
    Encoded date : UTC 2016-01-10 12:33:55
    Writing application : mkvmerge v8.2.0 ( World of Adventure ) 64bit
    Writing library : libebml v1.3.1 + libmatroska v1.4.2
    DURATION : 01:37:44.064000000
    NUMBER_OF_FRAMES : 784
    NUMBER_OF_BYTES : 1819381
    _STATISTICS_WRITING_APP : mkvmerge v8.2.0 ( World of Adventure ) 64bit
    _STATISTICS_WRITING_DATE_UTC : 2016-01-10 12:33:55
    _STATISTICS_TAGS : BPS DURATION NUMBER_OF_FRAMES NUMBER_OF_BYTES

    Video
    ID : 1
    Format : AVC
    Format/Info : Advanced Video Codec
    Format profile : [email protected]
    Format settings, CABAC : Yes
    Format settings, ReFrames : 4 frames
    Codec ID : V_MPEG4/ISO/AVC
    Duration : 1h 46mn
    Bit rate : 10.1 Mbps
    Width : 1 920 pixels
    Height : 800 pixels
    Display aspect ratio : 2.40:1
    Frame rate mode : Constant
    Frame rate : 23.976 fps
    Color space : YUV
    Chroma subsampling : 4:2:0
    Bit depth : 8 bits
    Scan type : Progressive
    Bits/(Pixel*Frame) : 0.275
    Stream size : 7.39 GiB (74%)
    Writing library : x264 core 68 r1183M f21daff
    Encoding settings : cabac=1 / ref=4 / deblock=1:-3:-3 / analyse=0x3:0x133 / me=umh / subme=9 / psy_rd=0.8:0.3 / mixed_ref=1 / me_range=32 / chroma_me=1 / trellis=2 / 8x8dct=1 / cqm=0 / deadzone=21,11 / chroma_qp_offset=-4 / threads=6 / nr=0 / decimate=1 / mbaff=0 / bframes=4 / b_pyramid=1 / b_adapt=2 / b_bias=0 / direct=3 / wpredb=1 / keyint=250 / keyint_min=25 / scenecut=40 / rc=2pass / bitrate=10141 / ratetol=1.0 / qcomp=0.60 / qpmin=10 / qpmax=51 / qpstep=4 / cplxblur=20.0 / qblur=0.5 / ip_ratio=1.40 / pb_ratio=1.30 / aq=1:0.80
    Language : English
    Default : Yes
    Forced : No
    DURATION : 01:46:52.333000000
    NUMBER_OF_FRAMES : 153742
    NUMBER_OF_BYTES : 8129038041
    _STATISTICS_WRITING_APP : mkvmerge v8.2.0 ( World of Adventure ) 64bit
    _STATISTICS_WRITING_DATE_UTC : 2016-01-10 12:33:55
    _STATISTICS_TAGS : BPS DURATION NUMBER_OF_FRAMES NUMBER_OF_BYTES

    Audio #1
    ID : 2
    Format : DTS
    Format/Info : Digital Theater Systems
    Mode : 16
    Format settings, Endianness : Big
    Codec ID : A_DTS
    Duration : 1h 46mn
    Bit rate mode : Constant
    Bit rate : 768 Kbps
    Channel(s) : 6 channels
    Channel positions : Front: L C R, Side: L R, LFE
    Sampling rate : 48.0 KHz
    Bit depth : 24 bits
    Compression mode : Lossy
    Stream size : 587 MiB (6%)
    Title : Thai DTS
    Language : Thai
    Default : Yes
    Forced : Yes

    Audio #2
    ID : 3
    Format : DTS
    Format/Info : Digital Theater Systems
    Mode : 16
    Format settings, Endianness : Big
    Codec ID : A_DTS
    Duration : 1h 46mn
    Bit rate mode : Constant
    Bit rate : 1 509 Kbps
    Channel(s) : 6 channels
    Channel positions : Front: L C R, Side: L R, LFE
    Sampling rate : 48.0 KHz
    Bit depth : 24 bits
    Compression mode : Lossy
    Stream size : 1.13 GiB (11%)
    Title : Eng DTS
    Language : English
    Default : No
    Forced : No

    Audio #3
    ID : 4
    Format : AC-3
    Format/Info : Audio Coding 3
    Mode extension : CM (complete main)
    Format settings, Endianness : Big
    Codec ID : A_AC3
    Duration : 1h 46mn
    Bit rate mode : Constant
    Bit rate : 384 Kbps
    Channel(s) : 6 channels
    Channel positions : Front: L C R, Side: L R, LFE
    Sampling rate : 48.0 KHz
    Compression mode : Lossy
    Stream size : 294 MiB (3%)
    Title : Thai AC-3
    Language : Thai
    Default : No
    Forced : No

    Audio #4
    ID : 5
    Format : AC-3
    Format/Info : Audio Coding 3
    Mode extension : CM (complete main)
    Format settings, Endianness : Big
    Codec ID : A_AC3
    Duration : 1h 46mn
    Bit rate mode : Constant
    Bit rate : 384 Kbps
    Channel(s) : 6 channels
    Channel positions : Front: L C R, Side: L R, LFE
    Sampling rate : 48.0 KHz
    Compression mode : Lossy
    Stream size : 294 MiB (3%)
    Title : Eng AC-3
    Language : English
    Default : No
    Forced : No

    Audio #5
    ID : 6
    Format : AC-3
    Format/Info : Audio Coding 3
    Format profile : Dolby Digital
    Mode extension : CM (complete main)
    Format settings, Endianness : Big
    Codec ID : A_AC3
    Duration : 1h 46mn
    Bit rate mode : Constant
    Bit rate : 192 Kbps
    Channel(s) : 2 channels
    Channel positions : Front: L R
    Sampling rate : 48.0 KHz
    Compression mode : Lossy
    Stream size : 147 MiB (1%)
    Title : Eng Commentary
    Language : English
    Default : No
    Forced : No

    Text #1
    ID : 7
    Format : VobSub
    Muxing mode : zlib
    Codec ID : S_VOBSUB
    Codec ID/Info : Picture based subtitle format used on DVDs
    Title : Thai
    Language : Thai
    Default : No
    Forced : No

    Text #2
    ID : 8
    Format : PGS
    Muxing mode : zlib
    Codec ID : S_HDMV/PGS
    Codec ID/Info : Picture based subtitle format used on BDs/HD-DVDs
    Title : Thai PGS
    Language : Thai
    Default : No
    Forced : No

    Text #4
    ID : 10
    Format : PGS
    Muxing mode : zlib
    Codec ID : S_HDMV/PGS
    Codec ID/Info : Picture based subtitle format used on BDs/HD-DVDs
    Title : Eng PGS
    Language : English
    Default : No
    Forced : No

    Text #5
    ID : 11
    Format : UTF-8
    Codec ID : S_TEXT/UTF8
    Codec ID/Info : UTF-8 Plain Text
    Title : Eng SRT
    Language : English
    Default : No
    Forced : No
    xxxxxxxxxxxxxxxxxxxxxxxxxxxxxxxxxxxxxxxxxxxxxxxxxx xxxxxxxxxxxxxxxxxxxxxxxxxxxx

    The Fast And The Furious 5 เร็ว..แรงทะลุนรก Fast Five (2011) 1080p
    พากย์ อังกฤษ DTS ไทย อังกฤษ AC-3 บรรยาย ไทย อังกฤษ
    SS = https://www.imgtrue.com/image/YIAOxF

    หลังจากไบรอัน (พอล วอล์คเกอร์) และ มีอา (จอร์ดานา บรูว์สเตอร์) ช่วยดอม (วิน ดีเซล) ให้พ้นจากการโดนจับกุม พวกเขาต้องหลบหนีมายัง รีโอ เดอ จาเนโร และรวบรวมบรรดานักซิ่งขั้นเทพมาทำงานร่วมกันเพื่ออิส รภาพ พวกเขาต้องเผชิญหน้ากับนักธุรกิจคอรัปชั่นที่ต้องการ ให้พวกเขาตาย แต่หมอนั่นไม่ใช่เพียงคนเดียวที่ตามล่าพวกเขาอยู่ เพราะยังมี ลุค ฮ็อบบ์ส (ดเวย์น จอห์นสัน) ตำรวจทำงานไม่เคยพลาดเป้า ที่ได้รับมอบหมายให้ตามล่าตัวดอมและไบรอันมาให้ได้

    General
    Unique ID : 188389114610002625977710151454167661502 (0x8DBA6C77C2B081EBA1AEBDF115A7FBBE)
    Complete name : The Fast And The Furious 5 เร็ว..แรงทะลุนรก Fast Five (2011) 1080p.mkv
    Format : Matroska
    Format version : Version 4 / Version 2
    File size : 10.4 GiB
    Duration : 2h 11mn
    Overall bit rate : 11.3 Mbps
    Encoded date : UTC 2016-01-10 16:23:46
    Writing application : mkvmerge v8.2.0 ( World of Adventure ) 64bit
    Writing library : libebml v1.3.1 + libmatroska v1.4.2
    DURATION : 02:09:43.331000000
    NUMBER_OF_FRAMES : 1254
    NUMBER_OF_BYTES : 1152292
    _STATISTICS_WRITING_APP : mkvmerge v8.2.0 ( World of Adventure ) 64bit
    _STATISTICS_WRITING_DATE_UTC : 2016-01-10 16:23:46
    _STATISTICS_TAGS : BPS DURATION NUMBER_OF_FRAMES NUMBER_OF_BYTES

    Video
    ID : 1
    Format : AVC
    Format/Info : Advanced Video Codec
    Format profile : [email protected]
    Format settings, CABAC : Yes
    Format settings, ReFrames : 4 frames
    Codec ID : V_MPEG4/ISO/AVC
    Duration : 2h 11mn
    Bit rate : 8 654 Kbps
    Width : 1 920 pixels
    Height : 816 pixels
    Display aspect ratio : 2.35:1
    Frame rate mode : Constant
    Frame rate : 23.976 fps
    Color space : YUV
    Chroma subsampling : 4:2:0
    Bit depth : 8 bits
    Scan type : Progressive
    Bits/(Pixel*Frame) : 0.230
    Stream size : 7.66 GiB (73%)
    Writing library : x264 core 116 r2044 392e762
    Encoding settings : cabac=1 / ref=4 / deblock=1:0:0 / analyse=0x3:0x133 / me=umh / subme=9 / psy=1 / psy_rd=1.00:0.15 / mixed_ref=1 / me_range=32 / chroma_me=1 / trellis=1 / 8x8dct=1 / cqm=0 / deadzone=21,11 / fast_pskip=0 / chroma_qp_offset=-3 / threads=6 / sliced_threads=0 / nr=0 / decimate=1 / interlaced=0 / bluray_compat=0 / constrained_intra=0 / bframes=5 / b_pyramid=2 / b_adapt=2 / b_bias=0 / direct=3 / weightb=1 / open_gop=0 / weightp=2 / keyint=250 / keyint_min=10 / scenecut=40 / intra_refresh=0 / rc_lookahead=40 / rc=2pass / mbtree=1 / bitrate=8654 / ratetol=1.0 / qcomp=0.60 / qpmin=0 / qpmax=69 / qpstep=4 / cplxblur=20.0 / qblur=0.5 / ip_ratio=1.40 / aq=1:1.00
    Language : English
    Default : Yes
    Forced : No
    DURATION : 02:10:21.243000000
    NUMBER_OF_FRAMES : 187522
    NUMBER_OF_BYTES : 8460442410
    _STATISTICS_WRITING_APP : mkvmerge v8.2.0 ( World of Adventure ) 64bit
    _STATISTICS_WRITING_DATE_UTC : 2016-01-10 16:23:46
    _STATISTICS_TAGS : BPS DURATION NUMBER_OF_FRAMES NUMBER_OF_BYTES

    Audio #1
    ID : 2
    Format : AC-3
    Format/Info : Audio Coding 3
    Mode extension : CM (complete main)
    Format settings, Endianness : Big
    Codec ID : A_AC3
    Duration : 2h 11mn
    Bit rate mode : Constant
    Bit rate : 448 Kbps
    Channel(s) : 6 channels
    Channel positions : Front: L C R, Side: L R, LFE
    Sampling rate : 48.0 KHz
    Compression mode : Lossy
    Stream size : 422 MiB (4%)
    Title : Thai AC-3
    Language : Thai
    Default : Yes
    Forced : Yes

    Audio #2
    ID : 3
    Format : DTS
    Format/Info : Digital Theater Systems
    Mode : 16
    Format settings, Endianness : Big
    Codec ID : A_DTS
    Duration : 2h 11mn
    Bit rate mode : Constant
    Bit rate : 1 509 Kbps
    Channel(s) : 6 channels
    Channel positions : Front: L C R, Side: L R, LFE
    Sampling rate : 48.0 KHz
    Bit depth : 24 bits
    Compression mode : Lossy
    Delay relative to video : 11ms
    Stream size : 1.39 GiB (13%)
    Title : Eng DTS
    Language : English
    Default : No
    Forced : No

    Audio #3
    ID : 4
    Format : AC-3
    Format/Info : Audio Coding 3
    Mode extension : CM (complete main)
    Format settings, Endianness : Big
    Codec ID : A_AC3
    Duration : 2h 11mn
    Bit rate mode : Constant
    Bit rate : 640 Kbps
    Channel(s) : 6 channels
    Channel positions : Front: L C R, Side: L R, LFE
    Sampling rate : 48.0 KHz
    Compression mode : Lossy
    Stream size : 602 MiB (6%)
    Title : Eng AC-3
    Language : English
    Default : No
    Forced : No

    Audio #4
    ID : 5
    Format : AC-3
    Format/Info : Audio Coding 3
    Format profile : Dolby Digital
    Mode extension : CM (complete main)
    Format settings, Endianness : Big
    Codec ID : A_AC3
    Duration : 2h 11mn
    Bit rate mode : Constant
    Bit rate : 192 Kbps
    Channel(s) : 2 channels
    Channel positions : Front: L R
    Sampling rate : 48.0 KHz
    Compression mode : Lossy
    Stream size : 181 MiB (2%)
    Title : Eng Commentary
    Language : English
    Default : No
    Forced : No

    Text #1
    ID : 6
    Format : VobSub
    Muxing mode : zlib
    Codec ID : S_VOBSUB
    Codec ID/Info : Picture based subtitle format used on DVDs
    Title : Thai
    Language : Thai
    Default : No
    Forced


    The Fast And The Furious 1.2001.1080p.mkv - 9.9 GB
    The Fast And The Furious 2.2 Fast 2 Furious.2003.1080p.mkv - 10.1 GB
    The Fast And The Furious 3.Tokyo Drift.200.1080p.mkv - 9.5 GB
    The Fast And The Furious 4.2009.1080p.mkv - 10.0 GB
    The Fast And The Furious 5.Fast Five.2011.1080p.mkv - 10.4 GB
    The Fast And The Furious 6.Extended Cu.2013.1080p.mkv - 10.3 GB
    The Fast And The Furious 7.Extended Cu.2015.1080p.mkv - 10.0 GB
    The Fast And The Furious 8.2017.1080p.mkv - 11.4 GB


    1
    http://www.mekafile.com/dl.php?f=gXf4e2bzIvwU
    2
    http://www.mekafile.com/dl.php?f=fWfcd2bzIveh
    3
    http://www.mekafile.com/dl.php?f=635063bzIvEO
    4
    http://www.mekafile.com/dl.php?f=726dc0bzIvMg
    5
    http://www.mekafile.com/dl.php?f=G80799bzIuUD
    6
    http://www.mekafile.com/dl.php?f=RK69ffbzIv73
    7
    http://www.mekafile.com/dl.php?f=ik2488bzIvrn
    8
    http://www.mekafile.com/dl.php?f=7C159dbzIvkP

  2. The Following User Says Thank You to Duckload.us For This Useful Post:

    Sazabi (05-14-2018)

  3. #2
    Senior Member
    Join Date
    Jan 2013
    Posts
    559
    Thanks
    559
    Thanked 0 Times in 0 Posts
    ขอบคุณมากครับ

+ Reply to Thread

Thread Information

Users Browsing this Thread

There are currently 1 users browsing this thread. (0 members and 1 guests)

     

Posting Permissions

  • You may not post new threads
  • You may not post replies
  • You may not post attachments
  • You may not edit your posts