+ Reply to Thread
Results 1 to 4 of 4
  1. #1
    Administrators Duckload.us's Avatar
    Join Date
    Dec 2010
    Posts
    88,773
    Thanks
    9
    Thanked 92,479 Times in 44,459 Posts

    Question [ฝรั่ง]-ใหม่+[* ภาพชัดระดับมาสเตอร์ *] Renegades (2017) : เรเนเกดส์ ทีมยุทธการล่าโคตรทองใต้สมุทร • [1080p] • [* WEB-DL.DD5.1.H264.AC-3.ThaiRong5.1 [email protected] *] [พากย์ไทยโรง 5.1 / 2.0 + เสียงอังกฤษ DD5.1]





    ภาพยนตร์ผลงานจากผู้สร้าง Taken, Lucy และ Valerian and the City of Thousand Planets
    แก๊งหน่วยรบเนวีซีล ต้องทำภารกิจลับๆ ในบอสเนีย
    และล่วงรู้ถึงที่ซ่อนทองคำแท่งจำนวนมหาศาลใต้ทะเล
    ภารกิจการกู้ทองสุดอันตรายในพื้นที่ของศัตรูจึงเริ่ม ต้นขึ้น!


    ••• [email protected] •••
    พากย์ไทยโรง 5.1 / 2.0 + เสียงอังกฤษ DD5.1




    wrote:

    Renegades หน่วยรบเนวีซีล ที่ได้รับภารกิจลับให้ไปต่อสู้บนพื้นดินแถบยุโรป ไม่นานหลังจากที่ได้ประจำการที่นั่น พวกเขาได้รับรู้ถึงข่าวลือจากชาวบ้านถึงแหล่งขุมทรัพ ย์มหาศาลที่อยู่ภายใต้ทะเลสาบบอสเนีย พวกเขาจึงตัดสินใจที่จะปฏิบัติภารกิจนอกเหนือคำสั่งเ พื่อช่วยเหลือชาวบ้านผู้ที่ควรเป็นเจ้าของสมบัติเหล่ านี้ ด้วยการอาสาใช้ยุทธวิธีทางการทหารเพื่อเอาขุมทรัพย์น ั้นขึ้นมา แต่พวกเขาก็ต้องเจอกับอุปสรรคเมื่อข้าศึกได้รับรู้ถึ งแผนการนี้เช่นกัน พวกเขาจึงเหลือเวลาเพียงไม่ถึง 10 ชั่วโมงเท่านั้น ก่อนที่ข้าศึกจะเข้ามาและเกิดสงครามแย่งชิงสมบัติขึ้ น

    ผลงานจากผู้สร้าง Taken, Lucy และ Valerian and the City of Thousand Planets



    wrote:

    Format : Matroska
    File size : 4.11 GiB
    Duration : 1 h 45 min
    Overall bit rate : 5 572 kb/s

    Movie name : [email protected]s

    Video
    ID : 1
    Format : AVC
    Format/Info : Advanced Video Codec
    Format profile : [email protected]
    Format settings : CABAC / 5 Ref Frames
    Format settings, CABAC : Yes
    Format settings, ReFrames : 5 frames
    Codec ID : V_MPEG4/ISO/AVC
    Duration : 1 h 45 min
    Bit rate : 4 544 kb/s
    Width : 1 916 pixels
    Height : 800 pixels
    Display aspect ratio : 2.40:1
    Frame rate mode : Constant
    Frame rate : 23.976 (24000/1001) FPS
    Color space : YUV
    Chroma subsampling : 4:2:0
    Bit depth : 8 bits
    Scan type : Progressive
    Bits/(Pixel*Frame) : 0.124
    Stream size : 3.35 GiB (82%)
    Title : [email protected]s
    Language : English
    Default : Yes
    Forced : No
    Color range : Limited
    Color primaries : BT.709
    Transfer characteristics : BT.709
    Matrix coefficients : BT.709

    Audio #1
    ID : 2
    Format : AC-3
    Format/Info : Audio Coding 3
    Codec ID : A_AC3
    Duration : 1 h 45 min
    Bit rate mode : Constant
    Bit rate : 448 kb/s
    Channel(s) : 6 channels
    Channel positions : Front: L C R, Side: L R, LFE
    Sampling rate : 48.0 kHz
    Frame rate : 31.250 FPS (1536 SPF)
    Bit depth : 16 bits
    Compression mode : Lossy
    Delay relative to video : -42 ms
    Stream size : 338 MiB (8%)
    Title : THR 5.1 AC-3 Modified By ~Mr.Captain~
    Language : Thai
    Service kind : Complete Main
    Default : Yes
    Forced : No

    Audio #2
    ID : 3
    Format : AC-3
    Format/Info : Audio Coding 3
    Codec ID : A_AC3
    Duration : 1 h 45 min
    Bit rate mode : Constant
    Bit rate : 192 kb/s
    Channel(s) : 2 channels
    Channel positions : Front: L R
    Sampling rate : 48.0 kHz
    Frame rate : 31.250 FPS (1536 SPF)
    Bit depth : 16 bits
    Compression mode : Lossy
    Delay relative to video : -42 ms
    Stream size : 145 MiB (3%)
    Title : THR 2.0 AC-3 Modified By ~Mr.Captain~
    Language : Thai
    Service kind : Complete Main
    Default : No
    Forced : No

    Audio #3
    ID : 4
    Format : AC-3
    Format/Info : Audio Coding 3
    Codec ID : A_AC3
    Duration : 1 h 45 min
    Bit rate mode : Constant
    Bit rate : 384 kb/s
    Channel(s) : 6 channels
    Channel positions : Front: L C R, Side: L R, LFE
    Sampling rate : 48.0 kHz
    Frame rate : 31.250 FPS (1536 SPF)
    Bit depth : 16 bits
    Compression mode : Lossy
    Delay relative to video : -42 ms
    Stream size : 290 MiB (7%)
    Title : English DD5.1 AC-3
    Language : English
    Service kind : Complete Main
    Default : No
    Forced : No

    Menu
    00:00:00.000 : en:Chapter 1
    00:34:10.091 : en:Chapter 2
    01:09:58.906 : en:Chapter 3
    01:36:17.359 : en:Chapter 4



    wrote:














    Download: cornfile
    http://cornfile.com/qsjyo6gcosg3
    Download: mekafile
    http://www.mekafile.com/dl.php?f=sb9780bzT5I0

  2. The Following 2 Users Say Thank You to Duckload.us For This Useful Post:

    Tellmon (01-08-2018), Wesker_TOT (01-09-2018)

  3. #2
    Senior Member
    Join Date
    Oct 2013
    Posts
    1,008
    Thanks
    0
    Thanked 0 Times in 0 Posts
    ขอบคุณครับ

  4. #3
    Senior Member
    Join Date
    Dec 2013
    Posts
    1,115
    Thanks
    3,032
    Thanked 0 Times in 0 Posts
    ขอบคุณนะครับ...

  5. #4
    Senior Member
    Join Date
    Aug 2012
    Posts
    864
    Thanks
    1
    Thanked 0 Times in 0 Posts
    ขอบคุณครับ

+ Reply to Thread

Thread Information

Users Browsing this Thread

There are currently 1 users browsing this thread. (0 members and 1 guests)

     

Posting Permissions

  • You may not post new threads
  • You may not post replies
  • You may not post attachments
  • You may not edit your posts