+ Reply to Thread
Results 1 to 1 of 1
  1. #1
    Administrators Duckload.us's Avatar
    Join Date
    Dec 2010
    Posts
    84,508
    Thanks
    9
    Thanked 89,351 Times in 42,735 Posts

    Question [ฝรั่ง]-[4K HDR Rip] Terminator 2 Judgment Day Theatrical Edition [DTS HD]+พากษ์ไทย 5.1-Encode.DTS-HD.2160p. [Rip]-[พากย์ไทย บรรยายไทย]

    cornfile.com


    โหลดจากเว็บนอก ริบจาก 4K Bluray แท้ๆ ในยุคหลัง
    แล้วมาโมใส่เสียงไทย ซับไทย ครับ

    เหมาะสำหรับคนชอบขนาดเล็กๆ
    แต่ก่อนผมโหลดแบบ Remux แล้วมาเทียบกับแบบ Rip ดูแล้วไม่ต่างกันเท่าไหร่ ก็เลยเลือกจะเก็บแบบนี้แทน

    ผมจะเน้นเสียง HD พวก Atmos , DTS X , DTS HD MA จะเลือกเสียงมาแค่นี้นะครับ
    แล้วมาโมใส่เสียง ซับไทยเพิ่ม

    ผมโหลดเก็บมาโมไว้หลายไฟล์อยู่ ถ้าสนใจจะทยอยๆลงมาให้เรื่อยๆนะครับ
    ใช้เน็ทบ้านปล่อย HDD ก็ไม่เยอะมาก ถ้าคนโหลดเสร็จเยอะแล้ว ผมจะลบจากในเครื่องแล้วเอาเรื่องใหม่มาลงนะครับ

    General
    Format : Matroska
    Format version : Version 4 / Version 2
    File size : 14.4 GiB
    Duration : 2 h 17 min
    Overall bit rate : 14.9 Mb/s
    Movie name : Terminator.2.1991.2160p.BluRay.x265.10bit.HDR.DTS-HD.MA.5.1-SWTYBLZ
    Encoded date : UTC 2017-12-28 12:43:46
    Writing application : mkvmerge v17.0.0 ( Be Ur Friend ) 64-bit
    Writing library : libebml v1.3.5 + libmatroska v1.4.8
    Cover : Yes
    Attachments : cover.jpg

    Video
    ID : 1
    Format : HEVC
    Format/Info : High Efficiency Video Coding
    Format profile : Main [email protected]@High
    Codec ID : V_MPEGH/ISO/HEVC
    Duration : 2 h 17 min
    Bit rate : 10.5 Mb/s
    Width : 3 840 pixels
    Height : 1 600 pixels
    Display aspect ratio : 2.40:1
    Frame rate mode : Constant
    Frame rate : 23.976 (24000/1001) FPS
    Color space : YUV
    Chroma subsampling : 4:2:0 (Type 2)
    Bit depth : 10 bits
    Bits/(Pixel*Frame) : 0.071
    Stream size : 10.0 GiB (70%)
    Title : Terminator.2.1991.2160p.BluRay.x265.10bit.HDR.DTS-HD.MA.5.1-SWTYBLZ
    Writing library : x265 2.5+4-b4a5bcfe29c7:[Windows][GCC 4.9.3][64 bit] 10bit
    Encoding settings : cpuid=1173503 / frame-threads=16 / numa-pools=24,24,24,24 / wpp / no-pmode / no-pme / no-psnr / no-ssim / log-level=2 / input-csp=1 / input-res=3840x1600 / interlace=0 / total-frames=0 / level-idc=51 / high-tier=1 / uhd-bd=0 / ref=3 / no-allow-non-conformance / repeat-headers / annexb / aud / hrd / info / hash=0 / no-temporal-layers / no-open-gop / min-keyint=1 / keyint=24 / bframes=4 / b-adapt=2 / b-pyramid / bframe-bias=0 / rc-lookahead=25 / lookahead-slices=4 / scenecut=40 / no-intra-refresh / ctu=64 / min-cu-size=8 / no-rect / no-amp / max-tu-size=32 / tu-inter-depth=1 / tu-intra-depth=1 / limit-tu=0 / rdoq-level=0 / dynamic-rd=0.00 / no-ssim-rd / signhide / no-tskip / nr-intra=0 / nr-inter=0 / no-constrained-intra / strong-intra-smoothing / max-merge=2 / limit-refs=3 / no-limit-modes / me=1 / subme=2 / merange=57 / temporal-mvp / weightp / no-weightb / no-analyze-src-pics / deblock=0:0 / no-sao / no-sao-non-deblock / rd=3 / no-early-skip / rskip / no-fast-intra / no-tskip-fast / no-cu-lossless / no-b-intra / rdpenalty=0 / psy-rd=2.00 / psy-rdoq=0.00 / no-rd-refine / analysis-reuse-mode=0 / no-lossless / cbqpoffs=0 / crqpoffs=0 / rc=crf / crf=16.0 / qcomp=0.60 / qpstep=4 / stats-write=0 / stats-read=0 / vbv-maxrate=160000 / vbv-bufsize=160000 / vbv-init=0.9 / crf-max=0.0 / crf-min=0.0 / ipratio=1.40 / pbratio=1.30 / aq-mode=1 / aq-strength=1.00 / cutree / zone-count=0 / no-strict-cbr / qg-size=32 / no-rc-grain / qpmax=69 / qpmin=0 / no-const-vbv / sar=1 / overscan=0 / videoformat=5 / range=0 / colorprim=9 / transfer=16 / colormatrix=9 / chromaloc=1 / chromaloc-top=2 / chromaloc-bottom=2 / display-window=0 / master-display=G(13250,34500)B(7500,3000)R(34000,16000)WP (15635,16450) / max-cll=0,0 / min-luma=0 / max-luma=1023 / log2-max-poc-lsb=8 / vui-timing-info / vui-hrd-info / slices=1 / opt-qp-pps / opt-ref-list-length-pps / no-multi-pass-opt-rps / scenecut-bias=0.05 / no-opt-cu-delta-qp / no-aq-motion / hdr / hdr-opt / no-dhdr10-opt / analysis-reuse-level=5 / scale-factor=0 / refine-intra=0 / refine-inter=0 / refine-mv=0 / no-limit-sao / ctu-info=0
    Default : Yes
    Forced : No
    Color range : Limited
    Color primaries : BT.2020
    Transfer characteristics : PQ
    Matrix coefficients : BT.2020 non-constant

    Audio #1
    ID : 2
    Format : DTS
    Format/Info : Digital Theater Systems
    Format profile : MA / Core
    Codec ID : A_DTS
    Duration : 2 h 17 min
    Bit rate mode : Variable / Constant
    Bit rate : 4 085 kb/s / 1 509 kb/s
    Channel(s) : 6 channels
    Channel positions : Front: L C R, Side: L R, LFE
    Sampling rate : 48.0 kHz
    Frame rate : 93.750 FPS (512 SPF)
    Bit depth : 24 bits
    Compression mode : Lossless / Lossy
    Stream size : 3.91 GiB (27%)
    Title : Terminator.2.1991.2160p.BluRay.x265.10bit.HDR.DTS-HD.MA.5.1-SWTYBLZ
    Language : English
    Default : Yes
    Forced : No

    Audio #2
    ID : 3
    Format : AC-3
    Format/Info : Audio Coding 3
    Codec ID : A_AC3
    Duration : 2 h 17 min
    Bit rate : 448 kb/s
    Channel(s) : 6 channels
    Sampling rate : 48.0 kHz
    Frame rate : 31.250 FPS (1536 SPF)
    Compression mode : Lossy
    Stream size : 440 MiB (3%)
    Title : Thai AC-3 5.1 at 448 Kbps Modified from DVD Master
    Language : Thai
    Default : No
    Forced : Yes

    Text #1
    ID : 4
    Format : VobSub
    Muxing mode : zlib
    Codec ID : S_VOBSUB
    Codec ID/Info : Picture based subtitle format used on DVDs
    Duration : 2 h 11 min
    Bit rate : 3 962 b/s
    Count of elements : 951
    Stream size : 3.73 MiB (0%)
    Title : Thai 1080p [Soft White]
    Language : Thai
    Default : Yes
    Forced : Yes

    Text #2
    ID : 5
    Format : PGS
    Muxing mode : zlib
    Codec ID : S_HDMV/PGS
    Codec ID/Info : Picture based subtitle format used on BDs/HD-DVDs
    Duration : 2 h 11 min
    Bit rate : 16.6 kb/s
    Count of elements : 1908
    Stream size : 15.7 MiB (0%)
    Title : Thai PGS [Soft White]
    Language : Thai
    Default : No
    Forced : No

    Menu
    00:00:00.000 : en:Chapter 1
    00:09:42.790 : en:Chapter 2
    00:22:07.034 : en:Chapter 3
    00:35:00.890 : en:Chapter 4
    00:47:57.583 : en:Chapter 5
    01:01:44.992 : en:Chapter 6
    01:13:17.142 : en:Chapter 7
    01:21:51.114 : en:Chapter 8
    01:30:19.122 : en:Chapter 9
    01:39:28.379 : en:Chapter 10
    01:50:05.473 : en:Chapter 11
    02:03:45.668 : en:Chapter 12


    Download: cornfile
    http://cornfile.com/4bap5zk5q793
    Download: mekafile
    http://www.mekafile.com/dl.php?f=Vt0d04bzIzkS

  2. The Following User Says Thank You to Duckload.us For This Useful Post:

    chai72 (01-08-2018)

+ Reply to Thread

Thread Information

Users Browsing this Thread

There are currently 1 users browsing this thread. (0 members and 1 guests)

     

Posting Permissions

  • You may not post new threads
  • You may not post replies
  • You may not post attachments
  • You may not edit your posts