Alternate Titles: 리 얼

Jang Tae-Young (Kim Soo-Hyun) is a popular trouble shooter in the criminal world. He is cold and ambitious. He dreams of building a casino hotel one day. A reporter then goes to Jang Tae-Young.

Directed By: Lee Sa-rang
Written By: Lee Jung-sub
Released: 28 Jun 2017
Runtime: 137 Mins
Genre: Action
Countries: South Korea
Languages: Korean
Adult: Yes



ҧͧ (͹) ѡ蹻׹Ҫԡᡧ·˹ҷѭҵ ҨШѴ÷ءԶշҧѭҷѺͺ ѧդѹԴ⹷˭شͧ Т繼ӹҨ Ἱâͧҵͧ¹ 龺Ѻ˭ԧǤ˹

General
Complete name {MINI Super-HQ}_Real.2017.720p.HDRip.H264.AAC-CJCONTENTS\Real.2017.720p.HDRip.H264.AAC-CJCONTENTS.mkv
Format : Matroska
Format version : Version 4 / Version 2
File size : 2.83 GiB
Duration : 2 h 18 min
Overall bit rate : 2 936 kb/s
Encoded date : UTC 2017-07-18 11:54:48
Writing application : mkvmerge v8.3.0 ('Over the Horizon') 64bit
Writing library : libebml v1.3.1 + libmatroska v1.4.2

Video
ID : 1
Format : AVC
Format/Info : Advanced Video Codec
Format profile : [email protected]
Format settings : 1 Ref Frames
Format settings, CABAC : No
Format settings, ReFrames : 1 frame
Codec ID : V_MPEG4/ISO/AVC
Duration : 2 h 18 min
Bit rate : 2 821 kb/s
Width : 1 280 pixels
Height : 720 pixels
Display aspect ratio : 16:9
Frame rate mode : Variable
Frame rate : 29.970 (30000/1001) FPS
Color space : YUV
Chroma subsampling : 4:2:0
Bit depth : 8 bits
Scan type : Progressive
Bits/(Pixel*Frame) : 0.102
Stream size : 2.76 GiB (97%)
Writing library : x264 core 150 r2833 df79067
Encoding settings : cabac=0 / ref=1 / deblock=1:0:0 / analyse=0x1:0x111 / me=hex / subme=2 / psy=1 / psy_rd=1.00:0.00 / mixed_ref=0 / me_range=16 / chroma_me=1 / trellis=0 / 8x8dct=0 / cqm=0 / deadzone=21,11 / fast_pskip=1 / chroma_qp_offset=0 / threads=12 / lookahead_threads=4 / sliced_threads=0 / nr=0 / decimate=1 / interlaced=0 / bluray_compat=0 / constrained_intra=0 / bframes=0 / weightp=0 / keyint=250 / keyint_min=25 / scenecut=40 / intra_refresh=0 / rc_lookahead=10 / rc=abr / mbtree=1 / bitrate=2821 / ratetol=1.0 / qcomp=0.60 / qpmin=0 / qpmax=69 / qpstep=4 / ip_ratio=1.40 / aq=1:1.00
Default : Yes
Forced : No

Audio
ID : 2
Format : AAC
Format/Info : Advanced Audio Codec
Format profile : LC
Codec ID : A_AAC-2
Duration : 2 h 18 min
Bit rate : 78.7 kb/s
Channel(s) : 2 channels
Channel positions : Front: L R
Sampling rate : 22.05 kHz
Frame rate : 21.533 FPS (1024 SPF)
Compression mode : Lossy
Stream size : 77.8 MiB (3%)
Default : Yes
Forced : No

ss
http://www.mx7.com/i/1fb/pNtOGc.jpg
http://www.mx7.com/i/19b/t9pLxc.jpg









Download: cornfile
http://cornfile.com/lyzp9jgr6qsf
Download: mekafile
http://www.mekafile.com/dl.php?f=qI959dbzYsJb

Sub ENG
http://cornfile.com/y2llywigave0
http://www.mekafile.com/dl.php?f=Vve061bzYsAP