+ Reply to Thread
Results 1 to 3 of 3
  1. #1
    Administrators Duckload.us's Avatar
    Join Date
    Dec 2010
    Posts
    87,776
    Thanks
    9
    Thanked 91,806 Times in 44,115 Posts

    Question [ฝรั่ง]-ใหม่!ร้อนๆ+[* ภาพชัดมาแล้ว *] Jigsaw [ 2017 ] เกมตัดต่อตาย [1080p] [WEB-DL.DD5.1.H264-THR.AC3.2.0][Sub.Eng]-WEB-DL.AC-3.1080p. [Modified]-[พากย์ไทยโรง]



    JIGSAW เกมต่อตัดตาย เตรียมกลับมาพร้อมกับการเปิดเกมใหม่ส่งกับดักครีเอทค วามตายที่ยกระดับความน่ากลัวมากขึ้นหลายเท่าตัว พร้อมกับเรื่องราวที่เริ่มต้นขึ้นเมื่อตำรวจได้พบศพท ี่ล้วนจบชีวิตด้วยกลวิธีสยองพองเกล้า ซึ่งทุกหลักฐานของการสืบสวนล้วนชี้ตัวไปที่ “จอห์น เครเมอร์” หรือ “จิ๊กซอว์” ที่ตายไปแล้วหลายปี เงื่อนงำนี้จึงนำไปสู่การไขคำตอบและไล่ล่าตัวว่าใครก ันที่มารับช่วงต่อของความโหดนี้ ก่อนที่จะมีผู้ตกเป็นเหยื่อการทรมานสุดวิปริตของมัน
    ภาคนี้ จิ๊กซอว์ยังใช้วิธีการทารุณเหยื่อชนิดที่คนดูต้องเกร ็งและเล็บจิกเบาะ เช่น
    ขังเหยื่อไว้ในห้องที่เต็มไปด้วยใบเลื่อย จากนั้นเหยื่อแต่ละคนต้องหาทางเอาตัวรอดให้ได้ภายใน 1 นาที ในขณะเดียวกัน โซ่ที่ล่ามเหยื่อก็พยายามดึงพวกเขาเข้าไปหาใบเลื่อยม ากยิ่งขึ้น,เข็มฉีดยาสามเล่มที่ซ่อนยาพิษไว้,บ่อมรณะ ที่พร้อมปล่อยของมีคมลงมาสับคนในบ่อ,อุปกรณ์สยองในตำ นานอย่างเครื่องกระฉากหัวก็มีโผล่มาในตัวอย่างของภาค นี้ด้วย ที่สำคัญคือเราจะได้เห็นเหล่าเหยื่อมารวมตัวกัน และดิ้นรนหาทางรอดราวกับว่า นี่คือเรียลลิตี้เกมที่มีชีวิตเป็นเดิมพัน

    Video
    ID : 1
    Format : AVC
    Format/Info : Advanced Video Codec
    Format profile : [email protected]
    Format settings, CABAC : Yes
    Format settings, ReFrames : 5 frames
    Codec ID : V_MPEG4/ISO/AVC
    Duration : 1 h 32 min
    Bit rate : 4 593 kb/s
    Width : 1 920 pixels
    Height : 804 pixels
    Display aspect ratio : 2.40:1
    Frame rate mode : Constant
    Frame rate : 23.976 (23976/1000) FPS
    Color space : YUV
    Chroma subsampling : 4:2:0
    Bit depth : 8 bits
    Scan type : Progressive
    Bits/(Pixel*Frame) : 0.124
    Stream size : 2.96 GiB (89%)
    Title : Jigsaw.2017.1080p.WEB-DL.DD5.1.H264
    Language : English
    Default : Yes
    Forced : No
    Color range : Limited
    Color primaries : BT.709
    Transfer characteristics : BT.709
    Matrix coefficients : BT.709

    Audio #1
    ID : 2
    Format : AC-3
    Format/Info : Audio Coding 3
    Mode extension : CM (complete main)
    Format settings, Endianness : Big
    Codec ID : A_AC3
    Duration : 1 h 32 min
    Bit rate mode : Constant
    Bit rate : 192 kb/s
    Channel(s) : 2 channels
    Channel positions : Front: L R
    Sampling rate : 48.0 kHz
    Frame rate : 31.250 FPS (1536 spf)
    Compression mode : Lossy
    Delay relative to video : -43 ms
    Stream size : 127 MiB (4%)
    Title : THR_By_Wwoo
    Language : Thai
    Default : No
    Forced : No

    Audio #2
    ID : 3
    Format : AC-3
    Format/Info : Audio Coding 3
    Mode extension : CM (complete main)
    Format settings, Endianness : Big
    Codec ID : A_AC3
    Duration : 1 h 32 min
    Bit rate mode : Constant
    Bit rate : 384 kb/s
    Channel(s) : 6 channels
    Channel positions : Front: L C R, Side: L R, LFE
    Sampling rate : 48.0 kHz
    Frame rate : 31.250 FPS (1536 spf)
    Compression mode : Lossy
    Delay relative to video : -43 ms
    Stream size : 253 MiB (7%)
    Title : Jigsaw.2017.1080p.WEB-DL.DD5.1.H264
    Language : English
    Default : Yes
    Forced : No

    Text
    ID : 4
    Format : UTF-8
    Codec ID : S_TEXT/UTF8
    Codec ID/Info : UTF-8 Plain Text
    Duration : 1 h 24 min
    Bit rate : 57 b/s
    Count of elements : 1193
    Stream size : 35.1 KiB (0%)
    Language : English
    Default : Yes
    Forced : No




    Download: cornfile
    http://cornfile.com/dlq1nkqbta3n
    Download: mekafile
    http://www.mekafile.com/dl.php?f=dNad9cbzYAnB

  2. The Following 3 Users Say Thank You to Duckload.us For This Useful Post:

    kenata (01-10-2018), PUNKROCK (01-10-2018), Wesker_TOT (01-10-2018)

  3. #2
    Senior Member
    Join Date
    Dec 2013
    Posts
    1,086
    Thanks
    3,002
    Thanked 0 Times in 0 Posts
    มาเร็ว ทันใจ....

    ขอบคุณครับ...

  4. #3
    Senior Member PUNKROCK's Avatar
    Join Date
    Jul 2011
    Posts
    1,139
    Thanks
    979
    Thanked 0 Times in 0 Posts
    . ขอบพระคุณอย่างสูงครับ
    PUNKROCK NEVERDIE

+ Reply to Thread

Thread Information

Users Browsing this Thread

There are currently 1 users browsing this thread. (0 members and 1 guests)

     

Posting Permissions

  • You may not post new threads
  • You may not post replies
  • You may not post attachments
  • You may not edit your posts