...Shitamachi Rocket เป็นเรื่องราวเกี่ยวกับพระเอกที่มีความฝันต้องการสร้ างเครื่องยนต์จรวดกระสวยอวกาศ
โดยนอกจากพระเอกแล้วยังมีตัวละครอีกเยอะมากที่ต่างคน ต่างมีจุดมุ่งหมายที่ต่างกันไป บ้างก็เดินทางร่วมกันไป
บ้างก็ขัดแย่งแย่งชิงผลประโยชน์กัน แต่ทุกเรื่องราวได้มาผูกต่อเนื่องกันกลายเป็นเรื่องร าวยิ่งใหญ่ของความฝันอันยิ่งใหญ่

เรื่องนี้นําแสดงโดยพนะเอกจอมเก๋าอย่าง ฮิโระชิ อะเบะ โดยที่เรื่องนี้มีการนําไปสร้าง
เป็นซีรี่ย์ทางช่อง wow มาก่อน แต่เวอร์ชั่นนี้ TBS ทุ่มทุนสร้างสุดๆ
ฉากหลายๆฉากนี่อลังการโคตรๆทําให้เวอร์ชั่นก่อนดูแบบ ว่าเด็กๆไปเลยทั้งที่ก็ไม่ได้แย่อะไร
คิดว่างบแต่ล่ะตอนคงไม่ตํ่ากว่า 60 ล้านแน่ๆ นอก จาก อะเบะ แล้วเรื่องนี้ยังมีนักแสดงดังๆอีกเพียบ
และเรื่องนี้ไม่ต้องห่วงคัดแบบฝีมือมาเน้นๆ ไม่มีเอามาขายหน้าตาเลยแม้แต่สักคนเดียว
หลายๆคนบ้านเราอาาจะไม่คุ้นหน้า แต่พอเห็นการแสดงแล้วยกนิ้วให้เลยเหมาะกับบทโคตรๆ ที่จะคุ้นๆบ้านเรากันอยู่ก็คงจะเป็นสาวสวย ทะโอะ ที่เริ่มเห็นชัดเจนแล้วว่าโตเป็นสาวเต็มตัวแล้วและบท เรื่องนี้ ทะโอะ คงได้แสดงฝีมือเต็มที่แน่ๆ นอกจากนั้นก็มีตัวเก๋าอย่าง Ken Yasuda,Hirofumi Arai, Miki Maya

Tsukuda Kohei, a man who gives up his career as a researcher to succeed his father s manufacturing factory strives with his workers to overcome the troubles and pursue their passion in manufacturing.
Though Kohei quits research at the Space Science Development Agency to succeed Tsukuda Manufacturing, he cannot leave behind his passion for developing rocket. The cost for developing rocket engine has put Kohei s company in serious financial trouble. While he scrambles for funds, their rival company - Nakashima Industrial - sues Tsukuda Manufacturing for patent infringement. The company s reputation soon goes down and banks refuse to finance them, but then one of the leading companies in Japan, Teikoku Heavy Industries, offers to buy a Tsukuda s patent for 2 billion yen. Although the company is heavily in debt and desperately needs the cash, the patent is what the engineers put their dreams. Kohei - a president who is responsible for the living of his workers - faces a difficult judgement to make. -- TBS










Details
Title (romaji): Shitamachi Rocket
Also known as: Downtown Rocket
Format: Renzoku
Genre: Corporate, drama
Episodes: 10
Viewership ratings: 18.64%
Broadcast network: TBS
Broadcast period: 2015-Oct-18 to 2015-Dec-20
Air time: Sunday 21:00
บรรยายไทย และจัดทำโดย pondloso
เรียบเรียงและอัพงานโดย ปลาทอง

Cast
Abe Hiroshi as Tsukuda Kohei
Tsuchiya Tao as Tsukuda Rina, Kohei s daughter
Tatekawa Danshun as Tonomura Naohiro
Yasuda Ken as Yamazaki Mitsuhiko
Wada Soko as Ehara Haruki
Konno Hiroki as Sakota Shigeru
Yamazaki Ikusaburo as Mano Kensuke
Nakamoto Ken as Tsuno Kaoru
Tanida Ayumi as Karakida Atsushi
Nakamura Tomoya as Asagi Shohei
Abe Shinnosuke as Nomura Kosuke
Takeuchi Ryoma as Tachibana Yosuke
Sano Gaku as Kawamoto Koji
Ato Kai as Tanabe, lawyer
Maya Miki as Izumi Saya, Kohei s ex wife
Arai Hirofumi as Tomiyama Takaharu
Kinoshita Hoka as Mizuhara Shigeharu
Hashimoto Satoshi as Mita Kimiyasu
Shunputei Shota as Yanai Tetsuji
Higashikokubaru Hideo as Negi Setsuo
Ikehata Shinnosuke as Nakagawa Kyoichi
Megumi Toshiaki as Kamiya Shuichi
Baisho Mitsuko as Tsukuda Kazue, Kohei s mother
Kikkawa Koji as Zaizen Michio
Sugi Ryotaro as Toma Hideki
Imada Koji



General
Complete name : D:series mai ยังไม่ได่อัพShitamachi Rocket.720p.HDTV.TH.MKV
Format : MKV
Format profile : Base Media
Codec ID : isom
File size :
Duration :
Overall bit rate mode : Variable
Overall bit rate : 2 158 Kbps
Encoded date : UTC 2015-10-26 02:06:29
Tagged date : UTC 2015-10-26 02:06:29

Video
ID : 1
Format : AVC
Format/Info : Advanced Video Codec
Format profile : [email protected]
Format settings, CABAC : Yes
Format settings, ReFrames : 4 frames
Codec ID : avc1
Codec ID/Info : Advanced Video Coding
Duration : 1h 32mn
Bit rate : 1 971 Kbps
Maximum bit rate : 16.4 Mbps
Width : 1 280 pixels
Height : 720 pixels
Display aspect ratio : 16:9
Frame rate mode : Constant
Frame rate : 29.970 fps
Color space : YUV
Chroma subsampling : 4:2:0
Bit depth : 8 bits
Scan type : Progressive
Bits/(Pixel*Frame) : 0.071
Stream size : 1.28 GiB (91%)
Writing library : x264 core 130 r2273 b3065e6
Encoding settings : cabac=1 / ref=3 / deblock=1:0:0 / analyse=0x3:0x133 / me=hex / subme=5 / psy=1 / psy_rd=1.00:0.00 / mixed_ref=0 / me_range=16 / chroma_me=1 / trellis=1 / 8x8dct=1 / cqm=0 / deadzone=21,11 / fast_pskip=1 / chroma_qp_offset=0 / threads=6 / lookahead_threads=1 / sliced_threads=0 / nr=0 / decimate=1 / interlaced=0 / bluray_compat=0 / constrained_intra=0 / bframes=16 / b_pyramid=2 / b_adapt=1 / b_bias=0 / direct=1 / weightb=0 / open_gop=0 / weightp=2 / keyint=250 / keyint_min=25 / scenecut=40 / intra_refresh=0 / rc_lookahead=40 / rc=crf / mbtree=1 / crf=20.0 / qcomp=0.60 / qpmin=0 / qpmax=69 / qpstep=4 / ip_ratio=1.40 / aq=1:1.00
Encoded date : UTC 2015-10-26 02:06:29
Tagged date : UTC 2015-10-26 02:06:49

Audio
ID : 2
Format : AAC
Format/Info : Advanced Audio Codec
Format profile : LC
Codec ID : 40
Duration : 1h 32mn
Bit rate mode : Variable
Bit rate : 192 Kbps
Maximum bit rate : 239 Kbps
Channel(s) : 2 channels
Channel positions : Front: L R
Sampling rate : 48.0 KHz
Compression mode : Lossy
Delay relative to video : 100ms
Stream size : 128 MiB (9%)
Encoded date : UTC 2015-10-26 02:06:44
Tagged date : UTC 2015-10-26 02:06:49

1
http://www.filecondo.com/dl.php?f=C73d9b1EzglA
2
http://www.filecondo.com/dl.php?f=M28dff1Ezgmw
3
http://www.filecondo.com/dl.php?f=53b9831Ezgnt
4
http://www.filecondo.com/dl.php?f=r132531Ezgor
5
http://www.filecondo.com/dl.php?f=Ja32e51Ezgpo
6
http://www.filecondo.com/dl.php?f=Ua930c1Ezgqn
7
http://www.filecondo.com/dl.php?f=74dcfc1Ezgrk
8
http://www.filecondo.com/dl.php?f=8809151Ezgsi
9
http://www.filecondo.com/dl.php?f=7d8a8b1Ezgte
10
http://www.filecondo.com/dl.php?f=K276a11Ezgui