+ Reply to Thread
Results 1 to 3 of 3
  1. #1
    Senior Member
    Join Date
    May 2015
    Posts
    1,732
    Thanks
    0
    Thanked 784 Times in 550 Posts

    Arrow [เสียงไทย 5.1 BluRay Master] [FULL-HD] / [Mini-HD] Lone Survivor (2013) : ปฏิบัติการพิฆาตสมรภูมิเดือด !!! [เสียง:ไทย 5.1,อังกฤษ DTS-HD MA 5.1 - บรรยาย:ไทย,อังกฤษ] [เสียงไทย + ซับไทย Master +ซับ PGS]

    cornfile.com











    ###จัดทำใหม่สำหรับนักสะสมมีทั้งหมด 3 file###

    1.supermini 4.07 GB
    2.minihd 7.01 GB
    3.full hd DTS-HD MA 5.1 11.3 GB

    เสียงไทย 5.1 จาก BluRay Master
    ส่วนซับไทย เพิ่ม font Angsana,Freesia,Cordia,Tahoma,Arial
    Modified from BluRay Master

    ---------------------------------------------------------------------------------------------------------



    SuperMini HD SIZE: 4.07 GB
    ไฟล์เล็กคมชัดคุณภาพ



    [enthdmovieclub]SuperMini.Lone [email protected]
    Format : Matroska
    Format version : Version 4 / Version 2
    File size : 4.07 GiB
    Duration : 2 h 1 min
    Overall bit rate : 4 789 kb/s
    Movie name : [enthdmovieclub]SuperMini.Lone [email protected]
    Encoded date : UTC 2018-01-10 06:35:06
    Writing application : mkvmerge v18.0.0 ('Apricity') 64-bit
    Writing library : libebml v1.3.5 + libmatroska v1.4.8
    Cover : Yes
    Attachments : cover.jpeg

    Video
    ID : 1
    Format : AVC
    Format/Info : Advanced Video Codec
    Format profile : [email protected]
    Format settings, CABAC : Yes
    Format settings, RefFrames : 5 frames
    Codec ID : V_MPEG4/ISO/AVC
    Duration : 2 h 1 min
    Bit rate : 3 209 kb/s
    Width : 1 920 pixels
    Height : 800 pixels

    Display aspect ratio : 2.40:1
    Frame rate mode : Constant
    Frame rate : 23.976 (24000/1001) FPS
    Color space : YUV
    Chroma subsampling : 4:2:0
    Bit depth : 8 bits
    Scan type : Progressive
    Bits/(Pixel*Frame) : 0.087
    Stream size : 2.72 GiB (67%)
    Title : @@Present by [email protected]@
    Writing library : x264 core 142 r2431 ac76440
    Encoding settings : cabac=1 / ref=5 / deblock=1:1:1 / analyse=0x3:0x113 / me=umh / subme=9 / psy=1 / psy_rd=1.00:0.15 / mixed_ref=1 / me_range=38 / chroma_me=1 / trellis=2 / 8x8dct=1 / cqm=0 / deadzone=21,11 / fast_pskip=0 / chroma_qp_offset=0 / threads=12 / lookahead_threads=1 / sliced_threads=0 / nr=0 / decimate=1 / interlaced=0 / bluray_compat=0 / constrained_intra=0 / bframes=3 / b_pyramid=2 / b_adapt=2 / b_bias=0 / direct=3 / weightb=1 / open_gop=0 / weightp=2 / keyint=240 / keyint_min=23 / scenecut=40 / intra_refresh=0 / rc_lookahead=60 / rc=2pass / mbtree=1 / bitrate=3209 / ratetol=1.0 / qcomp=0.60 / qpmin=0 / qpmax=69 / qpstep=4 / cplxblur=20.0 / qblur=0.5 / vbv_maxrate=28250 / vbv_bufsize=28250 / nal_hrd=none / filler=0 / ip_ratio=1.40 / aq=1:1.00
    Language : English
    Default : Yes
    Forced : No
    Color range : Limited
    Color primaries : BT.709
    Transfer characteristics : BT.709
    Matrix coefficients : BT.709

    Audio #1
    ID : 2
    Format : AC-3
    Format/Info : Audio Coding 3
    Format settings, Endianness : Big
    Codec ID : A_AC3
    Duration : 2 h 1 min
    Bit rate mode : Constant
    Bit rate : 384 kb/s
    Channel(s) : 6 channels
    Channel positions : Front: L C R, Side: L R, LFE
    Sampling rate : 48.0 kHz
    Frame rate : 31.250 FPS (1536 SPF)
    Bit depth : 16 bits
    Compression mode : Lossy
    Delay relative to video : -83 ms
    Stream size : 334 MiB (8%)
    Title : Thai AC3 5.1 BluRay Master
    Language : Thai
    Service kind : Complete Main
    Default : Yes
    Forced : Yes

    Audio #2
    ID : 3
    Format : DTS
    Format/Info : Digital Theater Systems
    Mode : 16
    Format settings, Endianness : Big
    Codec ID : A_DTS
    Duration : 2 h 1 min
    Bit rate mode : Constant
    Bit rate : 755 kb/s

    Channel(s) : 6 channels
    Channel positions : Front: L C R, Side: L R, LFE
    Sampling rate : 48.0 kHz
    Frame rate : 93.750 FPS (512 SPF)
    Bit depth : 24 bits
    Compression mode : Lossy
    Delay relative to video : -83 ms
    Stream size : 655 MiB (16%)
    Title : Eng DTS 5.1
    Language : English
    Default : No
    Forced : No

    Audio #3
    ID : 4
    Format : AAC
    Format/Info : Advanced Audio Codec
    Format profile : LC
    Codec ID : A_AAC
    Duration : 2 h 1 min
    Bit rate : 328 kb/s
    Channel(s) : 6 channels
    Channel positions : Front: L C R, Side: L R, LFE
    Sampling rate : 48.0 kHz
    Frame rate : 46.875 FPS (1024 SPF)
    Compression mode : Lossy
    Delay relative to video : -83 ms
    Stream size : 284 MiB (7%)
    Title : Eng AAC 2.0
    Language : English
    Default : No
    Forced : No

    Text #1
    ID : 5
    Format : PGS
    Muxing mode : zlib
    Codec ID : S_HDMV/PGS
    Codec ID/Info : Picture based subtitle format used on BDs/HD-DVDs
    Duration : 2 h 0 min
    Bit rate : 25.8 kb/s
    Count of elements : 2053
    Stream size : 22.2 MiB (1%)
    Title : Eng
    Language : English
    Default : No
    Forced : No

    Text #2
    ID : 6
    Format : PGS
    Muxing mode : zlib
    Codec ID : S_HDMV/PGS
    Codec ID/Info : Picture based subtitle format used on BDs/HD-DVDs
    Duration : 1 h 58 min
    Bit rate : 20.6 kb/s
    Count of elements : 2036
    Stream size : 17.4 MiB (0%)
    Title : Thai PGS Tahoma
    Language : Thai
    Default : No
    Forced : No

    Text #3
    ID : 7
    Format : PGS
    Muxing mode : zlib
    Codec ID : S_HDMV/PGS
    Codec ID/Info : Picture based subtitle format used on BDs/HD-DVDs
    Duration : 1 h 58 min
    Bit rate : 20.6 kb/s
    Count of elements : 2036
    Stream size : 17.4 MiB (0%)
    Title : Thai PGS Tahoma LOW
    Language : Thai
    Default : No
    Forced : No

    Text #4
    ID : 8
    Format : PGS
    Muxing mode : zlib
    Codec ID : S_HDMV/PGS
    Codec ID/Info : Picture based subtitle format used on BDs/HD-DVDs
    Duration : 1 h 58 min
    Bit rate : 22.4 kb/s
    Count of elements : 2036
    Stream size : 18.9 MiB (0%)
    Title : Thai PGS Freesia
    Language : Thai
    Default : No
    Forced : No

    Text #5
    ID : 9
    Format : PGS
    Muxing mode : zlib
    Codec ID : S_HDMV/PGS
    Codec ID/Info : Picture based subtitle format used on BDs/HD-DVDs
    Duration : 1 h 58 min
    Bit rate : 22.4 kb/s
    Count of elements : 2036
    Stream size : 18.9 MiB (0%)
    Title : Thai PGS Freesia LOW
    Language : Thai
    Default : No
    Forced : No

    Text #6
    ID : 10
    Format : PGS
    Muxing mode : zlib
    Codec ID : S_HDMV/PGS
    Codec ID/Info : Picture based subtitle format used on BDs/HD-DVDs
    Duration : 1 h 58 min
    Bit rate : 23.3 kb/s
    Count of elements : 2036
    Stream size : 19.7 MiB (0%)
    Title : Thai PGS Cordia
    Language : Thai
    Default : No
    Forced : No

    Text #7
    ID : 11
    Format : PGS
    Muxing mode : zlib
    Codec ID : S_HDMV/PGS
    Codec ID/Info : Picture based subtitle format used on BDs/HD-DVDs
    Duration : 1 h 58 min
    Bit rate : 23.3 kb/s
    Count of elements : 2036
    Stream size : 19.7 MiB (0%)
    Title : Thai PGS Cordia LOW
    Language : Thai
    Default : No
    Forced : No

    Text #8
    ID : 12
    Format : PGS
    Muxing mode : zlib
    Codec ID : S_HDMV/PGS
    Codec ID/Info : Picture based subtitle format used on BDs/HD-DVDs
    Duration : 1 h 58 min
    Bit rate : 19.8 kb/s
    Count of elements : 2036
    Stream size : 16.7 MiB (0%)
    Title : Thai PGS Arial
    Language : Thai
    Default : No
    Forced : No

    Text #9
    ID : 13
    Format : PGS
    Muxing mode : zlib
    Codec ID : S_HDMV/PGS
    Codec ID/Info : Picture based subtitle format used on BDs/HD-DVDs
    Duration : 1 h 58 min
    Bit rate : 19.8 kb/s
    Count of elements : 2036
    Stream size : 16.7 MiB (0%)
    Title : Thai PGS Arial LOW
    Language : Thai
    Default : No
    Forced : No

    Text #10
    ID : 14
    Format : PGS
    Muxing mode : zlib
    Codec ID : S_HDMV/PGS
    Codec ID/Info : Picture based subtitle format used on BDs/HD-DVDs
    Duration : 1 h 58 min
    Bit rate : 23.5 kb/s
    Count of elements : 2036
    Stream size : 19.9 MiB (0%)
    Title : Thai PGS Angsana
    Language : Thai
    Default : Yes
    Forced : Yes

    Text #11
    ID : 15
    Format : PGS
    Muxing mode : zlib
    Codec ID : S_HDMV/PGS
    Codec ID/Info : Picture based subtitle format used on BDs/HD-DVDs
    Duration : 1 h 58 min
    Bit rate : 23.5 kb/s
    Count of elements : 2036
    Stream size : 19.9 MiB (0%)
    Title : Thai PGS Angsana LOW
    Language : Thai
    Default : No
    Forced : No

    Text #12
    ID : 16
    Format : VobSub
    Muxing mode : zlib
    Codec ID : S_VOBSUB
    Codec ID/Info : Picture based subtitle format used on DVDs
    Duration : 1 h 58 min
    Bit rate : 5 193 b/s
    Count of elements : 1018
    Stream size : 4.39 MiB (0%)
    Title : Thai 1080p
    Language : Thai
    Default : No
    Forced : No

    Text #13
    ID : 17
    Format : VobSub
    Muxing mode : zlib
    Codec ID : S_VOBSUB
    Codec ID/Info : Picture based subtitle format used on DVDs
    Duration : 1 h 58 min
    Bit rate : 5 193 b/s
    Count of elements : 1018
    Stream size : 4.39 MiB (0%)
    Title : Thai 1080p LOW
    Language : Thai
    Default : No
    Forced : No

    Text #14
    ID : 18
    Format : VobSub
    Muxing mode : zlib
    Codec ID : S_VOBSUB
    Codec ID/Info : Picture based subtitle format used on DVDs
    Duration : 1 h 58 min
    Bit rate : 1 564 b/s
    Count of elements : 1018
    Stream size : 1.32 MiB (0%)
    Title : Thai 480p
    Language : Thai
    Default : No
    Forced : No

    Text #15
    ID : 19
    Format : VobSub
    Muxing mode : zlib
    Codec ID : S_VOBSUB
    Codec ID/Info : Picture based subtitle format used on DVDs
    Duration : 1 h 58 min
    Bit rate : 1 564 b/s
    Count of elements : 1018
    Stream size : 1.32 MiB (0%)
    Title : Thai 480p LOW
    Language : Thai
    Default : No
    Forced : No


    MODIFIED BY @ENTHD






    Mini HD SIZE: 7.01 GB
    ไฟล์ขนาดกลางคมชัดคุณภาพ



    [enthdmovieclub]MiniHD.Lone [email protected]
    Format : Matroska
    Format version : Version 4 / Version 2
    File size : 7.01 GiB
    Duration : 2 h 1 min
    Overall bit rate : 8 261 kb/s
    Movie name : [enthdmovieclub]MiniHD.Lone Survivor.2013.1080p[email protected]
    Encoded date : UTC 2018-01-10 06:49:17
    Writing application : mkvmerge v18.0.0 ('Apricity') 64-bit
    Writing library : libebml v1.3.5 + libmatroska v1.4.8
    Cover : Yes
    Attachments : cover.jpeg

    Video
    ID : 1
    Format : AVC
    Format/Info : Advanced Video Codec
    Format profile : [email protected]
    Format settings, CABAC : Yes
    Format settings, RefFrames : 4 frames
    Codec ID : V_MPEG4/ISO/AVC
    Duration : 2 h 1 min
    Bit rate : 6 685 kb/s
    Width : 1 920 pixels
    Height : 800 pixels

    Display aspect ratio : 2.40:1
    Frame rate mode : Constant
    Frame rate : 23.976 (24000/1001) FPS
    Color space : YUV
    Chroma subsampling : 4:2:0
    Bit depth : 8 bits
    Scan type : Progressive
    Bits/(Pixel*Frame) : 0.182
    Stream size : 5.67 GiB (81%)
    Title : @@Present by [email protected]@
    Writing library : x264 core 125 r2208 d9d2288
    Encoding settings : cabac=1 / ref=4 / deblock=1:-3:-3 / analyse=0x3:0x133 / me=umh / subme=11 / psy=1 / psy_rd=1.00:0.00 / mixed_ref=1 / me_range=32 / chroma_me=1 / trellis=2 / 8x8dct=1 / cqm=0 / deadzone=21,11 / fast_pskip=0 / chroma_qp_offset=-2 / threads=12 / lookahead_threads=2 / sliced_threads=0 / nr=0 / decimate=1 / interlaced=0 / bluray_compat=0 / constrained_intra=0 / bframes=8 / b_pyramid=2 / b_adapt=2 / b_bias=0 / direct=1 / weightb=1 / open_gop=0 / weightp=2 / keyint=250 / keyint_min=23 / scenecut=40 / intra_refresh=0 / rc=crf / mbtree=0 / crf=19.0 / qcomp=0.60 / qpmin=0 / qpmax=69 / qpstep=4 / ip_ratio=1.10 / pb_ratio=1.10 / aq=1:1.00
    Language : English
    Default : Yes
    Forced : No

    Audio #1
    ID : 2
    Format : AC-3
    Format/Info : Audio Coding 3
    Format settings, Endianness : Big
    Codec ID : A_AC3
    Duration : 2 h 1 min
    Bit rate mode : Constant
    Bit rate : 384 kb/s
    Channel(s) : 6 channels
    Channel positions : Front: L C R, Side: L R, LFE
    Sampling rate : 48.0 kHz
    Frame rate : 31.250 FPS (1536 SPF)
    Bit depth : 16 bits
    Compression mode : Lossy
    Stream size : 334 MiB (5%)
    Title : Thai AC3 5.1 BluRay Master
    Language : Thai
    Service kind : Complete Main
    Default : Yes
    Forced : Yes

    Audio #2
    ID : 3
    Format : DTS
    Format/Info : Digital Theater Systems
    Mode : 16
    Format settings, Endianness : Big
    Codec ID : A_DTS
    Duration : 2 h 1 min
    Bit rate mode : Constant
    Bit rate : 755 kb/s
    Channel(s) : 6 channels
    Channel positions : Front: L C R, Side: L R, LFE
    Sampling rate : 48.0 kHz
    Frame rate : 93.750 FPS (512 SPF)
    Bit depth : 24 bits
    Compression mode : Lossy
    Stream size : 655 MiB (9%)
    Title : Eng DTS 5.1
    Language : English
    Default : No
    Forced : No

    Audio #3
    ID : 4
    Format : AAC
    Format/Info : Advanced Audio Codec
    Format profile : LC
    Codec ID : A_AAC
    Duration : 2 h 1 min
    Bit rate : 328 kb/s
    Channel(s) : 6 channels
    Channel positions : Front: L C R, Side: L R, LFE
    Sampling rate : 48.0 kHz
    Frame rate : 46.875 FPS (1024 SPF)
    Compression mode : Lossy
    Stream size : 284 MiB (4%)
    Title : Eng AAC 2.0
    Language : English
    Default : No
    Forced : No

    Text #1
    ID : 5
    Format : PGS
    Muxing mode : zlib
    Codec ID : S_HDMV/PGS
    Codec ID/Info : Picture based subtitle format used on BDs/HD-DVDs
    Duration : 2 h 0 min
    Bit rate : 25.8 kb/s
    Count of elements : 2053
    Stream size : 22.2 MiB (0%)
    Title : Eng
    Language : English
    Default : No
    Forced : No

    Text #2
    ID : 6
    Format : PGS
    Muxing mode : zlib
    Codec ID : S_HDMV/PGS
    Codec ID/Info : Picture based subtitle format used on BDs/HD-DVDs
    Duration : 1 h 58 min
    Bit rate : 20.6 kb/s
    Count of elements : 2036
    Stream size : 17.4 MiB (0%)
    Title : Thai PGS Tahoma
    Language : Thai
    Default : No
    Forced : No

    Text #3
    ID : 7
    Format : PGS
    Muxing mode : zlib
    Codec ID : S_HDMV/PGS
    Codec ID/Info : Picture based subtitle format used on BDs/HD-DVDs
    Duration : 1 h 58 min
    Bit rate : 20.6 kb/s
    Count of elements : 2036
    Stream size : 17.4 MiB (0%)
    Title : Thai PGS Tahoma LOW
    Language : Thai
    Default : No
    Forced : No

    Text #4
    ID : 8
    Format : PGS
    Muxing mode : zlib
    Codec ID : S_HDMV/PGS
    Codec ID/Info : Picture based subtitle format used on BDs/HD-DVDs
    Duration : 1 h 58 min
    Bit rate : 22.4 kb/s
    Count of elements : 2036
    Stream size : 18.9 MiB (0%)
    Title : Thai PGS Freesia
    Language : Thai
    Default : No
    Forced : No

    Text #5
    ID : 9
    Format : PGS
    Muxing mode : zlib
    Codec ID : S_HDMV/PGS
    Codec ID/Info : Picture based subtitle format used on BDs/HD-DVDs
    Duration : 1 h 58 min
    Bit rate : 22.4 kb/s
    Count of elements : 2036
    Stream size : 18.9 MiB (0%)
    Title : Thai PGS Freesia LOW
    Language : Thai
    Default : No
    Forced : No

    Text #6
    ID : 10
    Format : PGS
    Muxing mode : zlib
    Codec ID : S_HDMV/PGS
    Codec ID/Info : Picture based subtitle format used on BDs/HD-DVDs
    Duration : 1 h 58 min
    Bit rate : 23.3 kb/s
    Count of elements : 2036
    Stream size : 19.7 MiB (0%)
    Title : Thai PGS Cordia
    Language : Thai
    Default : No
    Forced : No

    Text #7
    ID : 11
    Format : PGS
    Muxing mode : zlib
    Codec ID : S_HDMV/PGS
    Codec ID/Info : Picture based subtitle format used on BDs/HD-DVDs
    Duration : 1 h 58 min
    Bit rate : 23.3 kb/s
    Count of elements : 2036
    Stream size : 19.7 MiB (0%)
    Title : Thai PGS Cordia LOW
    Language : Thai
    Default : No
    Forced : No

    Text #8
    ID : 12
    Format : PGS
    Muxing mode : zlib
    Codec ID : S_HDMV/PGS
    Codec ID/Info : Picture based subtitle format used on BDs/HD-DVDs
    Duration : 1 h 58 min
    Bit rate : 19.8 kb/s
    Count of elements : 2036
    Stream size : 16.7 MiB (0%)
    Title : Thai PGS Arial
    Language : Thai
    Default : No
    Forced : No

    Text #9
    ID : 13
    Format : PGS
    Muxing mode : zlib
    Codec ID : S_HDMV/PGS
    Codec ID/Info : Picture based subtitle format used on BDs/HD-DVDs
    Duration : 1 h 58 min
    Bit rate : 19.8 kb/s
    Count of elements : 2036
    Stream size : 16.7 MiB (0%)
    Title : Thai PGS Arial LOW
    Language : Thai
    Default : No
    Forced : No

    Text #10
    ID : 14
    Format : PGS
    Muxing mode : zlib
    Codec ID : S_HDMV/PGS
    Codec ID/Info : Picture based subtitle format used on BDs/HD-DVDs
    Duration : 1 h 58 min
    Bit rate : 23.5 kb/s
    Count of elements : 2036
    Stream size : 19.9 MiB (0%)
    Title : Thai PGS Angsana
    Language : Thai
    Default : Yes
    Forced : Yes

    Text #11
    ID : 15
    Format : PGS
    Muxing mode : zlib
    Codec ID : S_HDMV/PGS
    Codec ID/Info : Picture based subtitle format used on BDs/HD-DVDs
    Duration : 1 h 58 min
    Bit rate : 23.5 kb/s
    Count of elements : 2036
    Stream size : 19.9 MiB (0%)
    Title : Thai PGS Angsana LOW
    Language : Thai
    Default : No
    Forced : No

    Text #12
    ID : 16
    Format : VobSub
    Muxing mode : zlib
    Codec ID : S_VOBSUB
    Codec ID/Info : Picture based subtitle format used on DVDs
    Duration : 1 h 58 min
    Bit rate : 5 193 b/s
    Count of elements : 1018
    Stream size : 4.39 MiB (0%)
    Title : Thai 1080p
    Language : Thai
    Default : No
    Forced : No

    Text #13
    ID : 17
    Format : VobSub
    Muxing mode : zlib
    Codec ID : S_VOBSUB
    Codec ID/Info : Picture based subtitle format used on DVDs
    Duration : 1 h 58 min
    Bit rate : 5 193 b/s
    Count of elements : 1018
    Stream size : 4.39 MiB (0%)
    Title : Thai 1080p LOW
    Language : Thai
    Default : No
    Forced : No

    Text #14
    ID : 18
    Format : VobSub
    Muxing mode : zlib
    Codec ID : S_VOBSUB
    Codec ID/Info : Picture based subtitle format used on DVDs
    Duration : 1 h 58 min
    Bit rate : 1 564 b/s
    Count of elements : 1018
    Stream size : 1.32 MiB (0%)
    Title : Thai 480p
    Language : Thai
    Default : No
    Forced : No

    Text #15
    ID : 19
    Format : VobSub
    Muxing mode : zlib
    Codec ID : S_VOBSUB
    Codec ID/Info : Picture based subtitle format used on DVDs
    Duration : 1 h 58 min
    Bit rate : 1 564 b/s
    Count of elements : 1018
    Stream size : 1.32 MiB (0%)
    Title : Thai 480p LOW
    Language : Thai
    Default : No
    Forced : No

    MODIFIED BY @ENTHD






    FULL HD SIZE: 11.3 GB
    ไฟล์ใหญ่คมชัดคุณภาพ



    [enthdmovieclub]FullHD.Lone [email protected]
    Format : Matroska
    Format version : Version 4 / Version 2
    File size : 11.3 GiB
    Duration : 2 h 1 min
    Overall bit rate : 13.3 Mb/s
    Movie name : [enthdmovieclub]FullHD.Lone [email protected]
    Encoded date : UTC 2018-01-10 11:54:13
    Writing application : mkvmerge v18.0.0 ('Apricity') 64-bit
    Writing library : libebml v1.3.5 + libmatroska v1.4.8
    Cover : Yes
    Attachments : cover.jpeg

    Video
    ID : 1
    Format : AVC
    Format/Info : Advanced Video Codec
    Format profile : [email protected]
    Format settings, CABAC : Yes
    Format settings, RefFrames : 4 frames
    Codec ID : V_MPEG4/ISO/AVC
    Duration : 2 h 1 min
    Bit rate : 8 169 kb/s
    Width : 1 920 pixels
    Height : 800 pixels

    Display aspect ratio : 2.40:1
    Frame rate mode : Constant
    Frame rate : 23.976 (24000/1001) FPS
    Color space : YUV
    Chroma subsampling : 4:2:0
    Bit depth : 8 bits
    Scan type : Progressive
    Bits/(Pixel*Frame) : 0.222
    Stream size : 6.92 GiB (62%)
    Title : @@Present by [email protected]@
    Writing library : x264 core 146 r2538 121396c
    Encoding settings : cabac=1 / ref=4 / deblock=1:-1:-1 / analyse=0x3:0x133 / me=umh / subme=11 / psy=1 / psy_rd=1.00:0.15 / mixed_ref=1 / me_range=32 / chroma_me=1 / trellis=2 / 8x8dct=1 / cqm=0 / deadzone=21,11 / fast_pskip=0 / chroma_qp_offset=-3 / threads=6 / lookahead_threads=1 / sliced_threads=0 / nr=0 / decimate=1 / interlaced=0 / bluray_compat=0 / constrained_intra=0 / bframes=5 / b_pyramid=2 / b_adapt=2 / b_bias=0 / direct=3 / weightb=1 / open_gop=0 / weightp=2 / keyint=240 / keyint_min=23 / scenecut=40 / intra_refresh=0 / rc_lookahead=60 / rc=2pass / mbtree=1 / bitrate=8169 / ratetol=1.0 / qcomp=0.60 / qpmin=0 / qpmax=69 / qpstep=4 / cplxblur=20.0 / qblur=0.5 / vbv_maxrate=50000 / vbv_bufsize=50000 / nal_hrd=none / filler=0 / ip_ratio=1.40 / aq=1:1.00
    Language : English
    Default : Yes
    Forced : No

    Audio #1
    ID : 2
    Format : AC-3
    Format/Info : Audio Coding 3
    Format settings, Endianness : Big
    Codec ID : A_AC3
    Duration : 2 h 1 min
    Bit rate mode : Constant
    Bit rate : 384 kb/s
    Channel(s) : 6 channels
    Channel positions : Front: L C R, Side: L R, LFE
    Sampling rate : 48.0 kHz
    Frame rate : 31.250 FPS (1536 SPF)
    Bit depth : 16 bits
    Compression mode : Lossy
    Stream size : 334 MiB (3%)
    Title : Thai AC3 5.1 BluRay Master
    Language : Thai
    Service kind : Complete Main
    Default : Yes
    Forced : Yes

    Audio #2
    ID : 3
    Format : DTS
    Format/Info : Digital Theater Systems
    Format profile : MA / Core
    Mode : 16
    Format settings, Endianness : Big
    Codec ID : A_DTS
    Duration : 2 h 1 min
    Bit rate mode : Variable / Constant
    Bit rate : 3 840 kb/s / 1 509 kb/s
    Channel(s) : 6 channels
    Channel positions : Front: L C R, Side: L R, LFE
    Sampling rate : 48.0 kHz
    Frame rate : 93.750 FPS (512 SPF)
    Bit depth : 24 bits
    Compression mode : Lossless / Lossy
    Stream size : 3.24 GiB (29%)
    Title : Eng DTS-HD MA 5.1
    Language : English
    Default : No
    Forced : No

    Audio #3
    ID : 4
    Format : AC-3
    Format/Info : Audio Coding 3
    Format settings, Endianness : Big
    Codec ID : A_AC3
    Duration : 2 h 1 min
    Bit rate mode : Constant
    Bit rate : 448 kb/s
    Channel(s) : 6 channels
    Channel positions : Front: L C R, Side: L R, LFE
    Sampling rate : 48.0 kHz
    Frame rate : 31.250 FPS (1536 SPF)
    Bit depth : 16 bits
    Compression mode : Lossy
    Stream size : 389 MiB (3%)
    Title : Eng AC3 5.1
    Language : English
    Service kind : Complete Main
    Default : No
    Forced : No

    Audio #4
    ID : 5
    Format : AAC
    Format/Info : Advanced Audio Codec
    Format profile : LC
    Codec ID : A_AAC
    Duration : 2 h 1 min
    Bit rate : 328 kb/s
    Channel(s) : 6 channels
    Channel positions : Front: L C R, Side: L R, LFE
    Sampling rate : 48.0 kHz
    Frame rate : 46.875 FPS (1024 SPF)
    Compression mode : Lossy
    Stream size : 284 MiB (2%)
    Title : Eng AAC 2.0
    Language : English
    Default : No
    Forced : No

    Text #1
    ID : 6
    Format : PGS
    Muxing mode : zlib
    Codec ID : S_HDMV/PGS
    Codec ID/Info : Picture based subtitle format used on BDs/HD-DVDs
    Duration : 2 h 0 min
    Bit rate : 25.8 kb/s
    Count of elements : 2053
    Stream size : 22.2 MiB (0%)
    Title : Eng
    Language : English
    Default : No
    Forced : No

    Text #2
    ID : 7
    Format : PGS
    Muxing mode : zlib
    Codec ID : S_HDMV/PGS
    Codec ID/Info : Picture based subtitle format used on BDs/HD-DVDs
    Duration : 1 h 58 min
    Bit rate : 20.6 kb/s
    Count of elements : 2036
    Stream size : 17.4 MiB (0%)
    Title : Thai PGS Tahoma
    Language : Thai
    Default : No
    Forced : No

    Text #3
    ID : 8
    Format : PGS
    Muxing mode : zlib
    Codec ID : S_HDMV/PGS
    Codec ID/Info : Picture based subtitle format used on BDs/HD-DVDs
    Duration : 1 h 58 min
    Bit rate : 20.6 kb/s
    Count of elements : 2036
    Stream size : 17.4 MiB (0%)
    Title : Thai PGS Tahoma LOW
    Language : Thai
    Default : No
    Forced : No

    Text #4
    ID : 9
    Format : PGS
    Muxing mode : zlib
    Codec ID : S_HDMV/PGS
    Codec ID/Info : Picture based subtitle format used on BDs/HD-DVDs
    Duration : 1 h 58 min
    Bit rate : 22.4 kb/s
    Count of elements : 2036
    Stream size : 18.9 MiB (0%)
    Title : Thai PGS Freesia
    Language : Thai
    Default : No
    Forced : No

    Text #5
    ID : 10
    Format : PGS
    Muxing mode : zlib
    Codec ID : S_HDMV/PGS
    Codec ID/Info : Picture based subtitle format used on BDs/HD-DVDs
    Duration : 1 h 58 min
    Bit rate : 22.4 kb/s
    Count of elements : 2036
    Stream size : 18.9 MiB (0%)
    Title : Thai PGS Freesia LOW
    Language : Thai
    Default : No
    Forced : No

    Text #6
    ID : 11
    Format : PGS
    Muxing mode : zlib
    Codec ID : S_HDMV/PGS
    Codec ID/Info : Picture based subtitle format used on BDs/HD-DVDs
    Duration : 1 h 58 min
    Bit rate : 23.3 kb/s
    Count of elements : 2036
    Stream size : 19.7 MiB (0%)
    Title : Thai PGS Cordia
    Language : Thai
    Default : No
    Forced : No

    Text #7
    ID : 12
    Format : PGS
    Muxing mode : zlib
    Codec ID : S_HDMV/PGS
    Codec ID/Info : Picture based subtitle format used on BDs/HD-DVDs
    Duration : 1 h 58 min
    Bit rate : 23.3 kb/s
    Count of elements : 2036
    Stream size : 19.7 MiB (0%)
    Title : Thai PGS Cordia LOW
    Language : Thai
    Default : No
    Forced : No

    Text #8
    ID : 13
    Format : PGS
    Muxing mode : zlib
    Codec ID : S_HDMV/PGS
    Codec ID/Info : Picture based subtitle format used on BDs/HD-DVDs
    Duration : 1 h 58 min
    Bit rate : 19.8 kb/s
    Count of elements : 2036
    Stream size : 16.7 MiB (0%)
    Title : Thai PGS Arial
    Language : Thai
    Default : No
    Forced : No

    Text #9
    ID : 14
    Format : PGS
    Muxing mode : zlib
    Codec ID : S_HDMV/PGS
    Codec ID/Info : Picture based subtitle format used on BDs/HD-DVDs
    Duration : 1 h 58 min
    Bit rate : 19.8 kb/s
    Count of elements : 2036
    Stream size : 16.7 MiB (0%)
    Title : Thai PGS Arial LOW
    Language : Thai
    Default : No
    Forced : No

    Text #10
    ID : 15
    Format : PGS
    Muxing mode : zlib
    Codec ID : S_HDMV/PGS
    Codec ID/Info : Picture based subtitle format used on BDs/HD-DVDs
    Duration : 1 h 58 min
    Bit rate : 23.5 kb/s
    Count of elements : 2036
    Stream size : 19.9 MiB (0%)
    Title : Thai PGS Angsana
    Language : Thai
    Default : Yes
    Forced : Yes

    Text #11
    ID : 16
    Format : PGS
    Muxing mode : zlib
    Codec ID : S_HDMV/PGS
    Codec ID/Info : Picture based subtitle format used on BDs/HD-DVDs
    Duration : 1 h 58 min
    Bit rate : 23.5 kb/s
    Count of elements : 2036
    Stream size : 19.9 MiB (0%)
    Title : Thai PGS Angsana LOW
    Language : Thai
    Default : No
    Forced : No

    Text #12
    ID : 17
    Format : VobSub
    Muxing mode : zlib
    Codec ID : S_VOBSUB
    Codec ID/Info : Picture based subtitle format used on DVDs
    Duration : 1 h 58 min
    Bit rate : 5 193 b/s
    Count of elements : 1018
    Stream size : 4.39 MiB (0%)
    Title : Thai 1080p
    Language : Thai
    Default : No
    Forced : No

    Text #13
    ID : 18
    Format : VobSub
    Muxing mode : zlib
    Codec ID : S_VOBSUB
    Codec ID/Info : Picture based subtitle format used on DVDs
    Duration : 1 h 58 min
    Bit rate : 5 193 b/s
    Count of elements : 1018
    Stream size : 4.39 MiB (0%)
    Title : Thai 1080p LOW
    Language : Thai
    Default : No
    Forced : No

    Text #14
    ID : 19
    Format : VobSub
    Muxing mode : zlib
    Codec ID : S_VOBSUB
    Codec ID/Info : Picture based subtitle format used on DVDs
    Duration : 1 h 58 min
    Bit rate : 1 564 b/s
    Count of elements : 1018
    Stream size : 1.32 MiB (0%)
    Title : Thai 480p
    Language : Thai
    Default : No
    Forced : No

    Text #15
    ID : 20
    Format : VobSub
    Muxing mode : zlib
    Codec ID : S_VOBSUB
    Codec ID/Info : Picture based subtitle format used on DVDs
    Duration : 1 h 58 min
    Bit rate : 1 564 b/s
    Count of elements : 1018
    Stream size : 1.32 MiB (0%)
    Title : Thai 480p LOW
    Language : Thai
    Default : No
    Forced : No

    MODIFIED BY @ENTHD






    เรื่องราวของทีมลาดตระเวนของหน่วยซีลทีม 10 ประกอบด้วยเรือเอกไมเคิล เมอร์ฟี่ (Taylor Kitsch) หัวหน้าทีม, พันจ่าโทแดนนี่ ไดแอทซ์ (Emile Hirsch), พันจ่าโทแมทธิว แอกเซลสัน (Ben Foster) และจ่าโทเสนารักษ์มาร์คัส ลูทเทรล (Mark Wahlberg) ได้รับคำสั่งให้ลาดตระเวนสอดแนมบริเวณหุบเขา Shuryek Valley ระหว่างการลาดตระเวนได้พบกับเด็กเลี้ยงแพะ และดูไม่เป็นพิษเป็นภัยอะไรจึงปล่อยตัวไป ก่อนที่เวลาต่อมาทีมลาดตระเวนจะพบว่าตัวเองถูกหน่วยร บกลุ่มตาลีบันล้อมพื้นที่เอาไว้หมดแล้ว ทางเดียวที่จะรอดไปได้คือฝ่าออกไป โดยหัวหน้าทีมได้วิทยุขอกำลังเสริม แต่วิทยุขัดข้องใช้การไม่ได้ จึงต้องใช้โทรศัพท์ผ่านดาวเทียมโทรกลับฐานเพื่อขอกำล ังเสริม หน่วยซีลทีม 10 จึงร่วมมือกับหน่วยปฏิบัติการพิเศษเข้าช่วยเหลือโดยจ ัดทีมขึ้นบินด้วยเฮลิคอปเตอร์ชีนุค แบล๊คฮอว์ค โดยมีอาปาเช่คุ้มกันเพื่อเข้าสู่พื้นที่ปะทะและช่วยเ หลือหน่วยลาดตระเวนที่ความหวังในการเอาชีวิตรอดเหลือ น้อยเต็มที!!!





    SuperMini HD SIZE: 4.07 GB


    SuperMini.Lone [email protected]


    Mini HD SIZE: 7.01 GB


    MiniHD.Lone [email protected]


    FULL HD SIZE: 11.3 GB


    FullHD.Lone [email protected]


    >>สมัคร VIP cornfile <<

    >> วิธีสมัคร VIP cornfile <<




    SuperMini HD SIZE: 4.07 GB


    PART1
    PART2
    PART3
    PART4

    Mini HD SIZE: 7.01 GB


    PART1
    PART2
    PART3
    PART4
    PART5

    FULL HD SIZE: 11.3 GB


    PART1
    PART2
    PART3
    PART4
    PART5
    PART6

    PASS: enthdmovieclub.blogspot.com


    ติดตามอัพเดตเรื่องอื่นๆได้ที่

    https://enthdmovieclub.blogspot.com/
    Last edited by ENT-HD; Yesterday at 11:39 AM.

  2. #2
    Senior Member
    Join Date
    May 2015
    Posts
    1,732
    Thanks
    0
    Thanked 784 Times in 550 Posts
    แก้ไข part 2 ใหม่ ทุกไฟล์ เรียบร้อย

  3. #3
    Member
    Join Date
    Sep 2011
    Posts
    59
    Thanks
    62
    Thanked 0 Times in 0 Posts
    ขอบพระคุณครับ

+ Reply to Thread

Thread Information

Users Browsing this Thread

There are currently 1 users browsing this thread. (0 members and 1 guests)

     

Posting Permissions

  • You may not post new threads
  • You may not post replies
  • You may not post attachments
  • You may not edit your posts