:: เรื่องย่อ ::

Quote:
วาเลเรียน (เดน ดีฮาน) และ ลอเรลีน (คาร่า เดอเลวีญ) รับบทเจ้าหน้าที่ปฏิบัติการพิเศษขององค์การปกครองเขต แดนมนุษยชาติ พวกเขามีหน้าที่พิทักษ์สันติสุขให้กับประชาชนทั่วจัก รวาล วันหนึ่งเมื่อพวกเขาได้รับคำสั่งจากผู้บัญชาการ อารุน ฟิลลิตต์ (ไคลฟ์ โอเวน) ทั้งสองจึงต้องออกเดินทางไปยังมหานครอัลฟ่า ดินแดนสุดอัศจรรย์ใจกลางอวกาศที่มีสิ่งมีชีวิตเป็นหม ื่น ๆ สปีชีส์จากทั่วทุกมุมจักรวาลอาศัยอยู่ร่วมกัน ประชากรกว่าสิบเจ็ดล้านที่อาศัยอยู่บนอัลฟ่าต่างอยู่ ร่วมกันอย่างสงบสุข พวกเขารวบรวมความรู้ เทคโนโลยี วิทยาการต่าง ๆ ของทุกเผ่า เพื่อสร้างความเป็นอยู่ที่ดีให้กับสิ่งมีชีวิตทั่วจั กรวาล แต่โชคไม่ดีนักที่มีภัยร้ายกำลังแฝงตัวคืบคลานอยู่ใน ความมืด และภัยร้ายนั้นจ้องจะทำลายเผ่าพันธุ์มนุษย์ให้หมดสิ้ นไป วาเลเรียน และลอเรลีนจะต้องออกผจญภัยครั้งยิ่งใหญ่ และการต่อสู้ทั้งหมดจะเป็นการกุมชะตาของมนุษยชาติเอา ไว้


:: รายละเอียดไฟล์ ::

Quote:
General
Format : Matroska
Format version : Version 4 / Version 2
File size : 51.4 GiB
Duration : 2 h 17 min
Overall bit rate mode : Variable
Overall bit rate : 53.5 Mb/s
Writing library : libebml v1.3.5 + libmatroska v1.4.8
Cover : Yes
Attachments : small_cover.jpg / small_cover_land.jpg / cover.jpg / cover_land.jpg

Video
ID : 3
Format : HEVC
Format/Info : High Efficiency Video Coding
Format profile : Main [email protected]@High
Codec ID : V_MPEGH/ISO/HEVC
Duration : 2 h 17 min
Bit rate : 49.6 Mb/s
Width : 3 840 pixels
Height : 2 160 pixels
Display aspect ratio : 16:9
Frame rate mode : Constant
Frame rate : 23.976 (24000/1001) FPS
Color space : YUV
Chroma subsampling : 4:2:0 (Type 2)
Bit depth : 10 bits
Bits/(Pixel*Frame) : 0.249
Stream size : 47.6 GiB (93%)
Writing library : ATEME Titan File 3.8.8 (4.8.8.0)
Default : Yes
Forced : No
Color range : Limited
Color primaries : BT.2020
Transfer characteristics : PQ
Matrix coefficients : BT.2020 non-constant
Mastering display color primar : R: x=0.680000 y=0.320000, G: x=0.265000 y=0.690000, B: x=0.150000 y=0.060000, White point: x=0.312700 y=0.329000
Mastering display luminance : min: 0.0050 cd/m2, max: 4000.0000 cd/m2

Audio #1
ID : 1
Format : DTS
Format/Info : Digital Theater Systems
Codec ID : A_DTS
Duration : 2 h 16 min
Bit rate : 768 kb/s
Channel(s) : 6 channels
Sampling rate : 48.0 kHz
Frame rate : 93.750 FPS (512 SPF)
Bit depth : 24 bits
Compression mode : Lossy
Stream size : 738 MiB (1%)
Title : Thai DTS BluRay Master
Language : Thai
Default : Yes
Forced : Yes

Audio #2
ID : 4
Format : TrueHD
Format profile : TrueHD+Atmos / TrueHD
Codec ID : A_TRUEHD
Duration : 2 h 17 min
Bit rate mode : Variable
Bit rate : 3 098 kb/s
Maximum bit rate : 4 347 kb/s
Channel(s) : Object Based / 8 channels
Channel positions : Object Based / Front: L C R, Side: L R, Back: L R, LFE
Sampling rate : / 48.0 kHz
Frame rate : 1 200.000 FPS (40 SPF)
Compression mode : Lossless
Stream size : 2.97 GiB (6%)
Language : English
Default : No
Forced : No

Text #1
ID : 2
Format : PGS
Muxing mode : zlib
Codec ID : S_HDMV/PGS
Codec ID/Info : Picture based subtitle format used on BDs/HD-DVDs
Duration : 2 h 9 min
Bit rate : 38.0 kb/s
Count of elements : 3118
Stream size : 35.1 MiB (0%)
Title : Thai PGS
Language : Thai
Default : No
Forced : No

Text #2
ID : 5
Format : PGS
Muxing mode : zlib
Codec ID : S_HDMV/PGS
Codec ID/Info : Picture based subtitle format used on BDs/HD-DVDs
Duration : 2 h 8 min
Bit rate : 31.1 kb/s
Count of elements : 4170
Stream size : 28.7 MiB (0%)
Title : English-PGS
Language : English
Default : Yes
Forced : No

Menu
00:00:00.000 : en:Chapter 1
00:11:12.213 : en:Chapter 2
00:20:10.500 : en:Chapter 3
00:30:38.336 : en:Chapter 4
00:41:21.562 : en:Chapter 5
00:51:37.344 : en:Chapter 6
01:01:54.919 : en:Chapter 7
01:10:50.996 : en:Chapter 8
01:20:27.489 : en:Chapter 9
01:34:23.741 : en:Chapter 10
01:44:35.102 : en:Chapter 11
01:57:01.723 : en:Chapter 12
02:06:18.195 : en:Chapter 13



ส่งมอบ โดย: NongZEZA~

Download: cornfile
http://cornfile.com/70nhtc95hrdc
Download: mekafile
http://www.mekafile.com/dl.php?f=9n106abzTcqh