+ Reply to Thread
Results 1 to 2 of 2
  1. #1
    Administrators Duckload.us's Avatar
    Join Date
    Dec 2010
    Posts
    89,831
    Thanks
    9
    Thanked 93,171 Times in 44,840 Posts

    Question [ฝรั่ง]-[MINI HD] Mackenna s Gold (1969) ขุมทองแม็คเคนน่า [เสียงไทย,อังกฤษ/บรรยายไทย Vob PGS SRT,อังกฤษ]-Encode.AC-3.720p. [Modified]-[พากย์ไทย บรรยายไทย]

    Mackenna s Gold (1969) ขุมทองแม็คเคนน่า



    เรื่องย่อ: ภาพยนตร์ออกฉายเมื่อปี 1969 นำแสดงโดย เกรกอรี่ เป็ค ในบทของนายอำเภอ แม็คเค็นน่า และ โอมาร์ ชารีฟ ในบทของจอมโจร โคโลราโด หนังคาวบอยที่ว่าด้วย การตามล่าหาทองคำที่ถูกซุกซ่อนอยู่ในเขตหวงห้ามของพว กอาปาเช่ โดยกลุ่ม "คนผิวขาว" กลุ่มใหญ่ ที่ประกอบไปด้วย บาทหลวง, นายอำเภอ, โจรห้าร้อย, นักเผชิญโชค, คนตาบอด และ ฯลฯ ทั้งหมดทั้งมวลต่างมุ่งหวังที่จะได้ทองเป็นกรรมสิทธิ เพื่อสนองความปราถนาของ ตนเอง .. โดยหารู้ไม่ว่า .. เส้นทางสู่ขุมทองนั้น อันตรายกว่าที่พวกเขาคาดคิดไว้มากมายนัก .. ความซวยเริ่มต้นเมื่อนายอำเภอแม๊คเค็นน่า พลาดยิงอินเดียแดงชราภาพรายหนึ่ง และได้รับรู้ภายหลังว่า คนที่เขายิงเป็นถึงหัวหน้าเผ่าอินเดียแดงที่ต้องหลบห นีจากเผ่ามาพร้อมกับ "ลายแทง" ขุมทอง ที่ต้องสาป ... แม๊คเค็นน่าเองได้เห็นลายแทงดังกล่าวและเลือกที่จะทิ ้งมันลงบนกองไฟ... แต่นั่นกลับเป็นความผิดพลาดที่สุดของเขาเอง .. เมื่อลายแทงต้องสาปนั้น ทำให้เขาต้องตกระกำลำบากอย่างที่สุด .. จอมโจรโคโลราโด พร้อมลูกสมุนชาวอินเดียแดง 3 คนไล่ตามแม๊คเค็นน่าได้ทันระหว่างทาง ท้ายที่สุดก็จับได้และขู่บังคับให้ แม๊คเค็นน่า นำทางไปยังขุมทอง ระหว่างทางสิ่งที่พวกเขาพบคือ กลุ่มนักแสวงโชคที่ติดตามมาด้วยกลุ่มใหญ่ ที่ประกอบไปด้วย นักเทศน์ ที่ต้องการจะนำทองไปสร้างโบสถ์ใหม่, ชายตาบอด ที่อ้างว่าตนเองเคยเห็นขุมทองนั่นมาแล้ว และ ถูกอาปาเช่ ควักตาออกเพราะเหตุที่"เห็น"ขุมทองนั่น... กระทั่ง โคโลราโด เองก็มีความใฝ่ฝันที่จะนำทองที่ได้ ไปชุบตัวเป็นเศรษฐีที่ปารีส, ฝรั่งเศส...



    General
    Unique ID : 217166383017897777002818330747582215587 (0xA360B957DB6E1C28A61C85A0F9D2F5A3)
    Complete name : D:หนังMacKenna s Gold [1969]Mackenna s Gold (883).mkv
    Format : Matroska
    Format version : Version 4 / Version 2
    File size : 4.12 GiB
    Duration : 2 h 8 min
    Overall bit rate mode : Variable
    Overall bit rate : 4 608 kb/s
    Encoded date : UTC 2018-01-13 14:27:49
    Writing application : mkvmerge v18.0.0 ( Apricity ) 64-bit
    Writing library : libebml v1.3.5 + libmatroska v1.4.8

    Video
    ID : 1
    Format : AVC
    Format/Info : Advanced Video Codec
    Format profile : [email protected]
    Format settings : CABAC / 3 Ref Frames
    Format settings, CABAC : Yes
    Format settings, RefFrames : 3 frames
    Codec ID : V_MPEG4/ISO/AVC
    Duration : 2 h 8 min
    Bit rate mode : Variable
    Bit rate : 3 973 kb/s
    Maximum bit rate : 25.0 Mb/s
    Width : 1 280 pixels
    Height : 720 pixels
    Display aspect ratio : 16:9
    Frame rate mode : Constant
    Frame rate : 23.976 (24000/1001) FPS
    Original frame rate : 23.976 (23976/1000) FPS
    Color space : YUV
    Chroma subsampling : 4:2:0
    Bit depth : 8 bits
    Scan type : Progressive
    Bits/(Pixel*Frame) : 0.180
    Stream size : 3.56 GiB (86%)
    Writing library : x264 core 66 r1114M a933a3e
    Encoding settings : cabac=1 / ref=3 / deblock=1:0:0 / analyse=0x3:0x133 / me=umh / subme=7 / psy_rd=1.0:0.0 / mixed_ref=1 / me_range=16 / chroma_me=1 / trellis=1 / 8x8dct=1 / cqm=0 / deadzone=21,11 / chroma_qp_offset=-2 / threads=6 / nr=0 / decimate=1 / mbaff=0 / bframes=3 / b_pyramid=0 / b_adapt=1 / b_bias=0 / direct=3 / wpredb=1 / keyint=250 / keyint_min=25 / scenecut=40(pre) / rc=2pass / bitrate=3973 / ratetol=1.0 / qcomp=0.60 / qpmin=10 / qpmax=51 / qpstep=4 / cplxblur=20.0 / qblur=0.5 / vbv_maxrate=25000 / vbv_bufsize=25000 / ip_ratio=1.40 / pb_ratio=1.30 / aq=1:1.00
    Default : Yes
    Forced : No

    Audio #1
    ID : 2
    Format : AAC
    Format/Info : Advanced Audio Codec
    Format profile : LC
    Codec ID : A_AAC-2
    Duration : 2 h 8 min
    Bit rate : 192 kb/s
    Channel(s) : 2 channels
    Channel positions : Front: L R
    Sampling rate : 44.1 kHz
    Frame rate : 43.066 FPS (1024 SPF)
    Compression mode : Lossy
    Stream size : 176 MiB (4%)
    Title : Thai Master
    Language : Thai
    Default : Yes
    Forced : No

    Audio #2
    ID : 3
    Format : AC-3
    Format/Info : Audio Coding 3
    Codec ID : A_AC3
    Duration : 2 h 8 min
    Bit rate mode : Constant
    Bit rate : 384 kb/s
    Channel(s) : 6 channels
    Channel positions : Front: L C R, Side: L R, LFE
    Sampling rate : 48.0 kHz
    Frame rate : 31.250 FPS (1536 SPF)
    Bit depth : 16 bits
    Compression mode : Lossy
    Stream size : 352 MiB (8%)
    Language : English
    Service kind : Complete Main
    Default : No
    Forced : No

    Text #1
    ID : 4
    Format : VobSub
    Muxing mode : zlib
    Codec ID : S_VOBSUB
    Codec ID/Info : Picture based subtitle format used on DVDs
    Duration : 2 h 5 min
    Bit rate : 6 569 b/s
    Count of elements : 932
    Stream size : 5.91 MiB (0%)
    Title : Tahoma
    Language : Thai
    Default : Yes
    Forced : No

    Text #2
    ID : 5
    Format : VobSub
    Muxing mode : zlib
    Codec ID : S_VOBSUB
    Codec ID/Info : Picture based subtitle format used on DVDs
    Duration : 2 h 5 min
    Bit rate : 7 106 b/s
    Count of elements : 932
    Stream size : 6.39 MiB (0%)
    Title : SegoeUI
    Language : Thai
    Default : No
    Forced : No

    Text #3
    ID : 6
    Format : VobSub
    Muxing mode : zlib
    Codec ID : S_VOBSUB
    Codec ID/Info : Picture based subtitle format used on DVDs
    Duration : 2 h 5 min
    Bit rate : 7 215 b/s
    Count of elements : 932
    Stream size : 6.49 MiB (0%)
    Title : AngsanaUPC
    Language : Thai
    Default : No
    Forced : No

    Text #4
    ID : 7
    Format : PGS
    Muxing mode : zlib
    Codec ID : S_HDMV/PGS
    Codec ID/Info : Picture based subtitle format used on BDs/HD-DVDs
    Duration : 2 h 5 min
    Bit rate : 29.9 kb/s
    Count of elements : 1864
    Stream size : 26.9 MiB (1%)
    Title : Tahoma
    Language : Thai
    Default : No
    Forced : No

    Text #5
    ID : 8
    Format : PGS
    Muxing mode : zlib
    Codec ID : S_HDMV/PGS
    Codec ID/Info : Picture based subtitle format used on BDs/HD-DVDs
    Duration : 2 h 5 min
    Bit rate : 32.3 kb/s
    Count of elements : 1864
    Stream size : 29.1 MiB (1%)
    Title : SegoeUI
    Language : Thai
    Default : No
    Forced : No

    Text #6
    ID : 9
    Format : PGS
    Muxing mode : zlib
    Codec ID : S_HDMV/PGS
    Codec ID/Info : Picture based subtitle format used on BDs/HD-DVDs
    Duration : 2 h 5 min
    Bit rate : 32.8 kb/s
    Count of elements : 1864
    Stream size : 29.5 MiB (1%)
    Title : AngsanaUPC
    Language : Thai
    Default : No
    Forced : No

    Text #7
    ID : 10
    Format : UTF-8
    Codec ID : S_TEXT/UTF8
    Codec ID/Info : UTF-8 Plain Text
    Duration : 2 h 5 min
    Bit rate : 80 b/s
    Count of elements : 932
    Stream size : 73.8 KiB (0%)
    Language : Thai
    Default : No
    Forced : No

    Text #8
    ID : 11
    Format : UTF-8
    Codec ID : S_TEXT/UTF8
    Codec ID/Info : UTF-8 Plain Text
    Duration : 2 h 6 min
    Bit rate : 32 b/s
    Count of elements : 760
    Stream size : 29.8 KiB (0%)
    Language : English
    Default : No
    Forced : No


    Download: cornfile
    http://cornfile.com/lqabtvw1kpzc
    Download: mekafile
    http://www.mekafile.com/dl.php?f=dP18f4bAcUlH

  2. The Following User Says Thank You to Duckload.us For This Useful Post:

    mta28 (02-25-2018)

  3. #2
    Senior Member
    Join Date
    Sep 2012
    Posts
    112
    Thanks
    88
    Thanked 0 Times in 0 Posts
    thank you very big

+ Reply to Thread

Thread Information

Users Browsing this Thread

There are currently 1 users browsing this thread. (0 members and 1 guests)

     

Posting Permissions

  • You may not post new threads
  • You may not post replies
  • You may not post attachments
  • You may not edit your posts