+ Reply to Thread
Results 1 to 2 of 2
  1. #1
    Administrators Duckload.us's Avatar
    Join Date
    Dec 2010
    Posts
    104,433
    Thanks
    9
    Thanked 107,685 Times in 50,781 Posts

    Question [ฝรั่ง]-Men In Black หน่วยจารชน พิทักษ์จักรวาล ภาค 1-3 (1997-2012) 1080p-DTS-Blu ray-AVC-H.264-AAA-[พากย์ไทย บรรยายไทย]

    Men in Black



    Rating: 7.3/10 Year: 1997 Genres: Adventure / Comedy / Family / Mystery / Sci-Fi Runtime: 98 min Language: English / Spanish Director: Barry Sonnenfeld Writers: Lowell Cunningham / Ed Solomon / Ed Solomon Cast: Tommy Lee Jones / Will Smith / Linda Fiorentinoโ€ฆ Plot:

    Based off of the comic book. Unbeknownst to other people, there is a private agency code named MiB. This agency is some kind of extra terrestrial surveillance corporation. Then, one of the agency's finest men only going by the name "K" (Tommy Lee Jones) , is recruiting for a new addition to the agency. He has chosen James Edwards (Will Smith) of the N.Y.P.D. Then, one day, a flying saucer crashes into Earth. This was an alien a part of the "Bug" race. He takes the body of a farmer (Vincent D'Onofrio) and heads to New York. He is searching for a super energy source called "The Galaxy". Now, Agents J and K must stop the bug before it can escape with the galaxy. Written by John Wiggins







    Men In Black 1 หน่วยจารชน พิทักษ์จักรวาล (1997) 1080p
    พากย์ อังกฤษ DTS พากย์ อังกฤษ ไทย AC-3 บรรยาย อังกฤษ ไทย
    SS = https://www.mpic.ws/image/WKp7E

    ทอมมี่ ลี โจนส์และ วิล สมิธ พบกันในภาพยนตร์แอ็คชั่นไซไฟฮิตถล่มทลายกับบทบุรุษใน ชุดดำ
    เจ้าหน้าที่จัดระเบียบประชากรเอเลี่ยนที่มาอาศัยอยู่ ในโลกของเรา
    ด้วยความสามารถของเหล่าเอเลี่ยนที่แอบมาอยู่บนโลกปะป นกับมนุษย์ได้อย่างแนบเนียน
    เป็นหน้าที่ขององค์กรเอ็มไอบี ที่จะต้องควบคุมดูแลความเรียบร้อยของผู้มาเยือนจากต่ างดาวทั้งหลายให้เป็นความลับต่อไป
    แต่เมื่อการตายของเอเลี่ยนตนหนึ่งเกิดขึ้นอย่างน่าสง สัย
    เจ้าหน้าที่ เคย์ (โจนส์) ผู้หน่ายโลกและเจ้าหน้าที่ เจย์ (สมิธ) คู่หูใหม่ไฟแรงต้องก้าวเข้ามาสืบสวนปริศนา
    โดยมีดร. ลอร่า วีเวอร์ (ลินดา) แพทย์หญิงสุดเซ็กซี่คอยให้ความร่วมมือพวกเขา
    พบว่ามันเป็นฝีมือของเอเลี่ยนร้าย (วินเซนต์ ดีโอโน ฟริโน) ที่ลักลอบเข้ามาด้วยจุดประสงค์อันตราย
    ซึ่งเคย์กับเจย์จะต้องหาทางกำจัดมันก่อนที่โลกจะถูกท ำลาย !!!

    General
    Unique ID : 228350017560536695678650777451122403896 (0xABCA9D18F5EB5EC897402FE061342A38)
    Complete name : Men In Black 1 หน่วยจารชน พิทักษ์จักรวาล (1997) 1080p.mkv
    Format : Matroska
    Format version : Version 4 / Version 2
    File size : 9.41 GiB
    Duration : 1h 37mn
    Overall bit rate : 13.7 Mbps
    Encoded date : UTC 2017-06-06 02:28:32
    Writing application : mkvmerge v8.2.0 ( World of Adventure ) 64bit
    Writing library : libebml v1.3.1 + libmatroska v1.4.2
    DURATION : 01:29:15.010000000
    NUMBER_OF_FRAMES : 965
    NUMBER_OF_BYTES : 35657
    _STATISTICS_WRITING_APP : mkvmerge v8.2.0 ( World of Adventure ) 64bit
    _STATISTICS_WRITING_DATE_UTC : 2017-06-06 02:28:32
    _STATISTICS_TAGS : BPS DURATION NUMBER_OF_FRAMES NUMBER_OF_BYTES

    Video
    ID : 1
    Format : AVC
    Format/Info : Advanced Video Codec
    Format profile : [email protected]
    Format settings, CABAC : Yes
    Format settings, ReFrames : 4 frames
    Codec ID : V_MPEG4/ISO/AVC
    Duration : 1h 37mn
    Bit rate : 10.9 Mbps
    Width : 1 920 pixels
    Height : 1 036 pixels
    Display aspect ratio : 1.85:1
    Frame rate mode : Constant
    Frame rate : 23.976 fps
    Color space : YUV
    Chroma subsampling : 4:2:0
    Bit depth : 8 bits
    Scan type : Progressive
    Bits/(Pixel*Frame) : 0.229
    Stream size : 7.49 GiB (80%)
    Writing library : x264 core 142 r2431 ac76440
    Encoding settings : cabac=1 / ref=4 / deblock=1:0:0 / analyse=0x3:0x113 / me=umh / subme=8 / psy=1 / psy_rd=1.00:0.00 / mixed_ref=1 / me_range=16 / chroma_me=1 / trellis=1 / 8x8dct=1 / cqm=0 / deadzone=21,11 / fast_pskip=1 / chroma_qp_offset=-2 / threads=12 / lookahead_threads=2 / sliced_threads=0 / nr=0 / decimate=1 / interlaced=0 / bluray_compat=0 / constrained_intra=0 / bframes=3 / b_pyramid=2 / b_adapt=2 / b_bias=0 / direct=3 / weightb=1 / open_gop=0 / weightp=2 / keyint=240 / keyint_min=23 / scenecut=40 / intra_refresh=0 / rc_lookahead=50 / rc=crf / mbtree=1 / crf=20.0 / qcomp=0.60 / qpmin=0 / qpmax=69 / qpstep=4 / ip_ratio=1.40 / aq=1:1.00
    Language : English
    Default : Yes
    Forced : No
    DURATION : 01:37:58.873000000
    NUMBER_OF_FRAMES : 140952
    NUMBER_OF_BYTES : 8231355850
    _STATISTICS_WRITING_APP : mkvmerge v8.2.0 ( World of Adventure ) 64bit
    _STATISTICS_WRITING_DATE_UTC : 2017-06-06 02:28:32
    _STATISTICS_TAGS : BPS DURATION NUMBER_OF_FRAMES NUMBER_OF_BYTES

    Audio #1
    ID : 2
    Format : AC-3
    Format/Info : Audio Coding 3
    Mode extension : CM (complete main)
    Format settings, Endianness : Big
    Codec ID : A_AC3
    Duration : 1h 37mn
    Bit rate mode : Constant
    Bit rate : 384 Kbps
    Channel(s) : 6 channels
    Channel positions : Front: L C R, Side: L R, LFE
    Sampling rate : 48.0 KHz
    Compression mode : Lossy
    Stream size : 269 MiB (3%)
    Title : Thai AC-3
    Language : Thai
    Default : Yes
    Forced : Yes

    Audio #2
    ID : 3
    Format : DTS
    Format/Info : Digital Theater Systems
    Mode : 16
    Format settings, Endianness : Big
    Codec ID : A_DTS
    Duration : 1h 37mn
    Bit rate mode : Constant
    Bit rate : 1 510 Kbps
    Channel(s) : 6 channels
    Channel positions : Front: L C R, Side: L R, LFE
    Sampling rate : 48.0 KHz
    Bit depth : 24 bits
    Compression mode : Lossy
    Stream size : 1.03 GiB (11%)
    Title : Eng DTS
    Language : English
    Default : No
    Forced : No

    Audio #3
    ID : 4
    Format : AC-3
    Format/Info : Audio Coding 3
    Mode extension : CM (complete main)
    Format settings, Endianness : Big
    Codec ID : A_AC3
    Duration : 1h 37mn
    Bit rate mode : Constant
    Bit rate : 640 Kbps
    Channel(s) : 6 channels
    Channel positions : Front: L C R, Side: L R, LFE
    Sampling rate : 48.0 KHz
    Compression mode : Lossy
    Stream size : 449 MiB (5%)
    Title : Eng AC-3
    Language : English
    Default : No
    Forced : No

    Text #1
    ID : 5
    Format : VobSub
    Muxing mode : zlib
    Codec ID : S_VOBSUB
    Codec ID/Info : Picture based subtitle format used on DVDs
    Title : Thai
    Language : Thai
    Default : No
    Forced : No

    Text #2
    ID : 6
    Format : VobSub
    Muxing mode : zlib
    Codec ID : S_VOBSUB
    Codec ID/Info : Picture based subtitle format used on DVDs
    Title : Eng
    Language : English
    Default : No
    Forced : No

    Text #3
    ID : 7
    Format : UTF-8
    Codec ID : S_TEXT/UTF8
    Codec ID/Info : UTF-8 Plain Text
    Title : Eng
    Language : English
    Default : No
    Forced : No

    Text #4
    ID : 8
    Format : UTF-8
    Codec ID : S_TEXT/UTF8
    Codec ID/Info : UTF-8 Plain Text
    Title : French
    Language : French
    Default : No
    Forced : No

    Text #5
    ID : 9
    Format : UTF-8
    Codec ID : S_TEXT/UTF8
    Codec ID/Info : UTF-8 Plain Text
    Title : Russian
    Language : Russian
    Default : No
    Forced : No

    Text #6
    ID : 10
    Format : UTF-8
    Codec ID : S_TEXT/UTF8
    Codec ID/Info : UTF-8 Plain Text
    Title : Polish
    Language : Polish
    Default : No
    Forced : No

    Text #7
    ID : 11
    Format : UTF-8
    Codec ID : S_TEXT/UTF8
    Codec ID/Info : UTF-8 Plain Text
    Title : Romanian
    Language : Romanian
    Default : No
    Forced : No

    Text #8
    ID : 12
    Format : UTF-8
    Codec ID : S_TEXT/UTF8
    Codec ID/Info : UTF-8 Plain Text
    Title : Portuguese
    Language : Portuguese
    Default : No
    Forced : No

    Menu
    00:00:00.000 : en:Start
    00:09:46.419 : en:Illegal Aliens
    00:12:46.807 : en:James Edwards
    00:18:12.341 : en:Edgar
    00:25:31.446 : en:Kay Takes Over
    00:29:14.544 : en:Jeebs
    00:37:19.195 : en:Simple Tests
    00:43:18.554 : en:Casablanca & Coffee
    00:49:58.328 : en:Customs & Gadgets
    00:54:29.391 : en:Agent Jay
    01:00:51.522 : en:In Grave Danger
    01:06:24.689 : en:Mr. and Mrs. Redgick
    01:08:55.548 : en:Interviewing Beatrice
    01:14:56.909 : en:At the Morgue
    01:19:39.149 : en:Little Dude & Big Dude
    01:29:49.634 : en:Girl He Left Behind

    xxxxxxxxxxxxxxxxxxxxxxxxxxxxxxxxxxxxxxxxxxxxxxxxxx xxxxxxxxxxxxx

    Men In Black 2 หน่วยจารชน พิทักษ์จักรวาล (2002) 1080p
    พากย์ อังกฤษ ไทย DTS พากย์ อังกฤษ ไทย AC-3 บรรยาย อังกฤษ ไทย
    SS = https://www.mpic.ws/image/WKJyC

    จากภาคแรกขณะที่ เค (ทอมมี่ ลี โจนส์) กลับมาใช้ชีวิตปกติ
    เจ (วิล สมิธ) ก็ยังคงทำหน้าที่เป็นตัวแทนให้กับองค์กรลับในการดูแล มนุษย์ต่างดาวบนโลกมนุษย์
    ในภาคที่ 2 เจ ได้ตาม เค กลับมาทำงานให้กลับองค์กรอีกครั้งหนึ่ง
    เพื่อที่จะควบคุมและปราบปรามเหล่ามนุษย์ต่างดาวที่มา อาศัยและตั้งรกรากอยู่บนโลกมนุษย์
    จุดหมายสำคัญขององค์กรนี้คือเการปกป้องโลกให้พ้นจากก ารรุกรานและครอบครองของมนุษ์ต่างดาว !!!

    General
    Unique ID : 235156315543229881402330669249987211077 (0xB0E9757F2A79F4C7A3E140C42C49EF45)
    Complete name : Men In Black 2 หน่วยจารชน พิทักษ์จักรวาล (2002) 1080p.mkv
    Format : Matroska
    Format version : Version 4 / Version 2
    File size : 10.3 GiB
    Duration : 1h 28mn
    Overall bit rate : 16.7 Mbps
    Encoded date : UTC 2017-06-05 22:32:07
    Writing application : mkvmerge v8.2.0 ( World of Adventure ) 64bit
    Writing library : libebml v1.3.1 + libmatroska v1.4.2
    DURATION : 01:20:00.759000000
    NUMBER_OF_FRAMES : 1040
    NUMBER_OF_BYTES : 69265
    _STATISTICS_WRITING_APP : mkvmerge v8.2.0 ( World of Adventure ) 64bit
    _STATISTICS_WRITING_DATE_UTC : 2017-06-05 22:32:07
    _STATISTICS_TAGS : BPS DURATION NUMBER_OF_FRAMES NUMBER_OF_BYTES

    Video
    ID : 1
    Format : AVC
    Format/Info : Advanced Video Codec
    Format profile : [email protected]
    Format settings, CABAC : Yes
    Format settings, ReFrames : 4 frames
    Codec ID : V_MPEG4/ISO/AVC
    Duration : 1h 28mn
    Bit rate : 12.6 Mbps
    Width : 1 920 pixels
    Height : 1 040 pixels
    Display aspect ratio : 1.85:1
    Frame rate mode : Constant
    Frame rate : 23.976 fps
    Color space : YUV
    Chroma subsampling : 4:2:0
    Bit depth : 8 bits
    Scan type : Progressive
    Bits/(Pixel*Frame) : 0.264
    Stream size : 7.58 GiB (73%)
    Writing library : x264 core 122 r2184 5c85e0a
    Encoding settings : cabac=1 / ref=4 / deblock=1:-3:-3 / analyse=0x3:0x113 / me=umh / subme=10 / psy=1 / psy_rd=1.10:0.10 / mixed_ref=1 / me_range=32 / chroma_me=1 / trellis=2 / 8x8dct=1 / cqm=0 / deadzone=21,11 / fast_pskip=0 / chroma_qp_offset=-2 / threads=12 / sliced_threads=0 / nr=0 / decimate=1 / interlaced=0 / bluray_compat=0 / constrained_intra=0 / bframes=6 / b_pyramid=2 / b_adapt=2 / b_bias=0 / direct=3 / weightb=1 / open_gop=0 / weightp=2 / keyint=250 / keyint_min=23 / scenecut=40 / intra_refresh=0 / rc_lookahead=60 / rc=2pass / mbtree=0 / bitrate=12637 / ratetol=1.0 / qcomp=0.60 / qpmin=0 / qpmax=69 / qpstep=4 / cplxblur=20.0 / qblur=0.5 / vbv_maxrate=40000 / vbv_bufsize=40000 / nal_hrd=none / ip_ratio=1.40 / pb_ratio=1.30 / aq=1:1.00
    Language : English
    Default : Yes
    Forced : No
    DURATION : 01:28:08.237000000
    NUMBER_OF_FRAMES : 126791
    NUMBER_OF_BYTES : 8348263799
    _STATISTICS_WRITING_APP : mkvmerge v8.2.0 ( World of Adventure ) 64bit
    _STATISTICS_WRITING_DATE_UTC : 2017-06-05 22:32:07
    _STATISTICS_TAGS : BPS DURATION NUMBER_OF_FRAMES NUMBER_OF_BYTES

    Audio #1
    ID : 2
    Format : DTS
    Format/Info : Digital Theater Systems
    Mode : 16
    Format settings, Endianness : Big
    Codec ID : A_DTS
    Duration : 1h 28mn
    Bit rate mode : Constant
    Bit rate : 1 510 Kbps
    Channel(s) : 6 channels
    Channel positions : Front: L C R, Side: L R, LFE
    Sampling rate : 48.0 KHz
    Bit depth : 24 bits
    Compression mode : Lossy
    Delay relative to video : 3ms
    Stream size : 952 MiB (9%)
    Title : Thai DTS
    Language : Thai
    Default : Yes
    Forced : Yes

    Audio #2
    ID : 3
    Format : DTS
    Format/Info : Digital Theater Systems
    Mode : 16
    Format settings, Endianness : Big
    Codec ID : A_DTS
    Duration : 1h 28mn
    Bit rate mode : Constant
    Bit rate : 1 509 Kbps
    Channel(s) : 6 channels
    Channel positions : Front: L C R, Side: L R, LFE
    Sampling rate : 48.0 KHz
    Bit depth : 16 bits
    Compression mode : Lossy
    Delay relative to video : 11ms
    Stream size : 951 MiB (9%)
    Title : Eng DTS
    Language : English
    Default : No
    Forced : No

    Audio #3
    ID : 4
    Format : AC-3
    Format/Info : Audio Coding 3
    Mode extension : CM (complete main)
    Format settings, Endianness : Big
    Codec ID : A_AC3
    Duration : 1h 28mn
    Bit rate mode : Constant
    Bit rate : 448 Kbps
    Channel(s) : 6 channels
    Channel positions : Front: L C R, Side: L R, LFE
    Sampling rate : 48.0 KHz
    Compression mode : Lossy
    Delay relative to video : 14ms
    Stream size : 282 MiB (3%)
    Title : Thai AC-3
    Language : Thai
    Default : No
    Forced : No

    Audio #4
    ID : 5
    Format : AC-3
    Format/Info : Audio Coding 3
    Mode extension : CM (complete main)
    Format settings, Endianness : Big
    Codec ID : A_AC3
    Duration : 1h 28mn
    Bit rate mode : Constant
    Bit rate : 640 Kbps
    Channel(s) : 6 channels
    Channel positions : Front: L C R, Side: L R, LFE
    Sampling rate : 48.0 KHz
    Compression mode : Lossy
    Stream size : 403 MiB (4%)
    Title : Eng AC-3
    Language : English
    Default : No
    Forced : No

    Text #1
    ID : 6
    Format : VobSub
    Muxing mode : zlib
    Codec ID : S_VOBSUB
    Codec ID/Info : Picture based subtitle format used on DVDs
    Title : Thai
    Language : Thai
    Default : No
    Forced : No

    Text #2
    ID : 7
    Format : VobSub
    Muxing mode : zlib
    Codec ID : S_VOBSUB
    Codec ID/Info : Picture based subtitle format used on DVDs
    Title : Thai SMALL
    Language : Thai
    Default : No
    Forced : No

    Text #3
    ID : 8
    Format : VobSub
    Muxing mode : zlib
    Codec ID : S_VOBSUB
    Codec ID/Info : Picture based subtitle format used on DVDs
    Title : Eng
    Language : English
    Default : No
    Forced : No

    Text #4
    ID : 9
    Format : UTF-8
    Codec ID : S_TEXT/UTF8
    Codec ID/Info : UTF-8 Plain Text
    Title : Eng SRT
    Language : English
    Default : No
    Forced : No

    Text #5
    ID : 10
    Format : UTF-8
    Codec ID : S_TEXT/UTF8
    Codec ID/Info : UTF-8 Plain Text
    Title : Russian
    Language : Russian
    Default : No
    Forced : No

    Menu
    00:00:00.000 : :Start
    00:07:01.129 : :A Bug in the Electrical System
    00:13:20.716 : :Scrad and Charlie
    00:19:05.936 : :Another Partner Neuralyzed
    00:24:23.170 : :Ben
    00:30:41.256 : :MIB Agent F
    00:34:59.388 : :Laura the Witness
    00:41:55.596 : :Kylothian Class C
    00:48:13.974 : :Postmaster Kevin Brown
    00:52:32.858 : :"Welcome Back, Agent Kay!"
    00:57:32.824 : :Headquarters Breached
    01:02:34.125 : :Flushed
    01:06:20.434 : :Jeebs
    01:10:30.059 : eneuralyzed
    01:13:54.847 : :"Bend Him!"
    01:16:02.474 : :Key to the Clues

    xxxxxxxxxxxxxxxxxxxxxxxxxxxxxxxxxxxxxxxxxxxxxxxxxx xxxxxxxxxxxxx

    Men In Black 3 หน่วยจารชน พิทักษ์จักรวาล (2012) 1080p
    พากย์ ไทย อังกฤษ DTS , ไทย อังกฤษ AC-3 บรรยาย ไทย อังกฤษ
    SS = https://www.mpic.ws/image/WKMVn

    สายลับ เจ (วิล สมิธ) และ เค (ทอมมี่ ลี โจนส์) กลับมา...แบบทันเวลา !
    ตลอด 15 ปีที่อยู่กับหน่วยจารชนพิทักษ์จักรวาล เจ ได้พบเห็นสิ่งประหลาดพิศดารมากมาย
    แต่ไม่มีอะไร หรือแม้แต่บรรดาเอเลี่ยนพิลึกพิลั่นที่จะทำให้เขางุน งงเท่ากับคู่หูหน้าตายและช่างเหน็บแนมของเขาได้อีกแล ้ว
    จนเมื่อชีวิตของ เค และชะตากรรมของโลกตกอยู่ในอันตราย
    สายลับเจจึงต้องเดินทางย้อนเวลาเพื่อแก้ไขทุกอย่างให ้ถูกต้อง
    นั่นทำให้เจพบว่า ยังมีความลึกลับอีกมากมาย ในจักรวาลที่เคไม่เคยบอกเขา
    ซึ่งมันจะถูกเปิดเผยออกมา เมื่อเขาร่วมทีมกับสายลับเคในวัยหนุ่ม (จอช โบรลิน)
    เพื่อพิทักษ์ชีวิตคู่หูของเขา หน่วยงานเอ็มไอบี และอนาคตของมนุษยชาติ !!!

    General
    Unique ID : 175198571394243132074257051644083467149 (0x83CE0479F9D162C6BBC257868EEE738D)
    Complete name : Men In Black 3 หน่วยจารชน พิทักษ์จักรวาล (2012) 1080p.mkv
    Format : Matroska
    Format version : Version 4 / Version 2
    File size : 9.53 GiB
    Duration : 1h 45mn
    Overall bit rate : 12.9 Mbps
    Encoded date : UTC 2017-06-05 19:53:23
    Writing application : mkvmerge v8.2.0 ( World of Adventure ) 64bit
    Writing library : libebml v1.3.1 + libmatroska v1.4.2
    DURATION : 01:37:24.130000000
    NUMBER_OF_FRAMES : 1462
    NUMBER_OF_BYTES : 75017
    _STATISTICS_WRITING_APP : mkvmerge v8.2.0 ( World of Adventure ) 64bit
    _STATISTICS_WRITING_DATE_UTC : 2017-06-05 19:53:23
    _STATISTICS_TAGS : BPS DURATION NUMBER_OF_FRAMES NUMBER_OF_BYTES

    Video
    ID : 1
    Format : AVC
    Format/Info : Advanced Video Codec
    Format profile : [email protected]
    Format settings, CABAC : Yes
    Format settings, ReFrames : 4 frames
    Codec ID : V_MPEG4/ISO/AVC
    Duration : 1h 45mn
    Bit rate : 8 840 Kbps
    Width : 1 920 pixels
    Height : 1 040 pixels
    Display aspect ratio : 1.85:1
    Frame rate mode : Constant
    Frame rate : 23.976 fps
    Color space : YUV
    Chroma subsampling : 4:2:0
    Bit depth : 8 bits
    Scan type : Progressive
    Bits/(Pixel*Frame) : 0.185
    Stream size : 6.35 GiB (67%)
    Writing library : x264 core 125 r2208 d9d2288
    Encoding settings : cabac=1 / ref=4 / deblock=1:0:0 / analyse=0x3:0x113 / me=umh / subme=8 / psy=1 / psy_rd=1.00:0.00 / mixed_ref=1 / me_range=16 / chroma_me=1 / trellis=1 / 8x8dct=1 / cqm=0 / deadzone=21,11 / fast_pskip=1 / chroma_qp_offset=-2 / threads=12 / lookahead_threads=2 / sliced_threads=0 / nr=0 / decimate=1 / interlaced=0 / bluray_compat=0 / constrained_intra=0 / bframes=3 / b_pyramid=2 / b_adapt=2 / b_bias=0 / direct=3 / weightb=1 / open_gop=0 / weightp=2 / keyint=240 / keyint_min=24 / scenecut=40 / intra_refresh=0 / rc_lookahead=50 / rc=2pass / mbtree=1 / bitrate=8840 / ratetol=1.0 / qcomp=0.60 / qpmin=0 / qpmax=69 / qpstep=4 / cplxblur=20.0 / qblur=0.5 / ip_ratio=1.40 / aq=1:1.00
    Language : English
    Default : Yes
    Forced : No
    DURATION : 01:45:50.427000000
    NUMBER_OF_FRAMES : 152258
    NUMBER_OF_BYTES : 7011974776
    _STATISTICS_WRITING_APP : mkvmerge v8.2.0 ( World of Adventure ) 64bit
    _STATISTICS_WRITING_DATE_UTC : 2017-06-05 19:53:23
    _STATISTICS_TAGS : BPS DURATION NUMBER_OF_FRAMES NUMBER_OF_BYTES

    Audio #1
    ID : 2
    Format : DTS
    Format/Info : Digital Theater Systems
    Mode : 16
    Format settings, Endianness : Big
    Codec ID : A_DTS
    Duration : 1h 45mn
    Bit rate mode : Constant
    Bit rate : 1 510 Kbps
    Channel(s) : 6 channels
    Channel positions : Front: L C R, Side: L R, LFE
    Sampling rate : 48.0 KHz
    Bit depth : 24 bits
    Compression mode : Lossy
    Stream size : 1.12 GiB (12%)
    Title : Thai DTS
    Language : Thai
    Default : Yes
    Forced : Yes

    Audio #2
    ID : 3
    Format : DTS
    Format/Info : Digital Theater Systems
    Mode : 16
    Format settings, Endianness : Big
    Codec ID : A_DTS
    Duration : 1h 45mn
    Bit rate mode : Constant
    Bit rate : 1 509 Kbps
    Channel(s) : 6 channels
    Channel positions : Front: L C R, Side: L R, LFE
    Sampling rate : 48.0 KHz
    Bit depth : 24 bits
    Compression mode : Lossy
    Delay relative to video : 11ms
    Stream size : 1.12 GiB (12%)
    Title : Eng DTS
    Language : English
    Default : No
    Forced : No

    Audio #3
    ID : 4
    Format : AC-3
    Format/Info : Audio Coding 3
    Mode extension : CM (complete main)
    Format settings, Endianness : Big
    Codec ID : A_AC3
    Duration : 1h 45mn
    Bit rate mode : Constant
    Bit rate : 384 Kbps
    Channel(s) : 6 channels
    Channel positions : Front: L C R, Side: L R, LFE
    Sampling rate : 48.0 KHz
    Compression mode : Lossy
    Stream size : 291 MiB (3%)
    Title : Thai AC-3
    Language : Thai
    Default : No
    Forced : No

    Audio #4
    ID : 5
    Format : AC-3
    Format/Info : Audio Coding 3
    Mode extension : CM (complete main)
    Format settings, Endianness : Big
    Codec ID : A_AC3
    Duration : 1h 45mn
    Bit rate mode : Constant
    Bit rate : 640 Kbps
    Channel(s) : 6 channels
    Channel positions : Front: L C R, Side: L R, LFE
    Sampling rate : 48.0 KHz
    Compression mode : Lossy
    Stream size : 484 MiB (5%)
    Title : Eng AC-3
    Language : English
    Default : No
    Forced : No

    Text #1
    ID : 6
    Format : VobSub
    Muxing mode : zlib
    Codec ID : S_VOBSUB
    Codec ID/Info : Picture based subtitle format used on DVDs
    Title : Thai
    Language : Thai
    Default : No
    Forced : No

    Text #2
    ID : 7
    Format : VobSub
    Muxing mode : zlib
    Codec ID : S_VOBSUB
    Codec ID/Info : Picture based subtitle format used on DVDs
    Title : Thai
    Language : Thai
    Default : No
    Forced : No

    Text #3
    ID : 8
    Format : UTF-8
    Codec ID : S_TEXT/UTF8
    Codec ID/Info : UTF-8 Plain Text
    Title : Eng
    Language : English
    Default : No
    Forced : No

    Text #4
    ID : 9
    Format : UTF-8
    Codec ID : S_TEXT/UTF8
    Codec ID/Info : UTF-8 Plain Text
    Title : ENG SRT
    Language : English
    Default : No
    Forced : No

    Text #5
    ID : 10
    Format : UTF-8
    Codec ID : S_TEXT/UTF8
    Codec ID/Info : UTF-8 Plain Text
    Title : Russian
    Language : Russian
    Default : No
    Forced : No

    Menu
    00:00:00.000 : en:Chapter 01
    00:06:09.577 : en:Chapter 02
    00:11:27.478 : en:Chapter 03
    00:16:58.809 : en:Chapter 04
    00:22:36.229 : en:Chapter 05
    00:31:24.632 : en:Chapter 06
    00:37:36.420 : en:Chapter 07
    00:42:43.018 : en:Chapter 08
    00:48:55.849 : en:Chapter 09
    00:53:58.235 : en:Chapter 10
    00:59:27.772 : en:Chapter 11
    01:05:52.782 : en:Chapter 12
    01:11:56.312 : en:Chapter 13
    01:19:50.619 : en:Chapter 14
    01:27:57.063 : en:Chapter 15
    01:35:30.683 : en:Chapter 16


    Download: cornfile
    Men In Black 1 .1080p.mkv - 9.4 GB
    Men In Black 2.1080p.mkv - 10.3 GB
    Men In Black 3 .1080p.mkv - 9.5 GB

    Download: mekafile
    1
    http://www.mekafile.com/dl.php?f=gl5c42bAAteo
    2
    http://www.mekafile.com/dl.php?f=NQ4148bAAuEG
    3
    http://www.mekafile.com/dl.php?f=s72907bAAvi5

  2. #2
    Senior Member
    Join Date
    Jun 2012
    Posts
    1,159
    Thanks
    0
    Thanked 1 Time in 1 Post
    ขอบคุณครับ

+ Reply to Thread

Thread Information

Users Browsing this Thread

There are currently 1 users browsing this thread. (0 members and 1 guests)

     

Posting Permissions

  • You may not post new threads
  • You may not post replies
  • You may not post attachments
  • You may not edit your posts