+ Reply to Thread
Results 1 to 4 of 4
  1. #1
    Administrators Duckload.us's Avatar
    Join Date
    Dec 2010
    Posts
    94,370
    Thanks
    9
    Thanked 96,761 Times in 46,541 Posts

    Question [Թ] TIGER ZINDA HAI 2017 1080p Blu-ray x264 DD 5.1-DTOne [1080p][§Թ][Ѻ Bluray]-MiniBD.H.264.1080p. [Rip]-[Soundtrack ]




    ͧ : Tiger Zinda Hai (2017)
    : Adventure,Action,Thriller
    ӡѺ: Ali Abbas Zafar
    ѡʴ: Salman Khan, Katrina Kaif, Sajjad Delafrooz
    ͡ : 18 Dec 2017
    ҩ : 161 min.
    : Hindi
    : India
    IMDB link: [6.8/10] http://www.imdb.com/title/tt5956100/



    ͧǢͧáԨͧҭ㹡ê ѡ ˹ҷ (ҹ ҹ) ҡԹ ˹ҷ (ҷԹ ि) ҡҡʶҹ ŧáԨ㹹ͧ¸ ͵͡áѺʧ Һ ѹ (Ѩ ҿ٫)



    Format : Matroska
    Format version : Version 4 / Version 2
    File size : 4.52 GiB
    Duration : 2h 40mn
    Overall bit rate : 4 044 Kbps
    Encoded date : UTC 2018-02-09 23:40:59
    Writing application : mkvmerge v20.0.0 ( I Am The Sun ) 64-bit
    Writing library : libebml v1.3.5 + libmatroska v1.4.8
    DURATION : 02:39:52.480000000
    NUMBER_OF_FRAMES : 299765
    NUMBER_OF_BYTES : 767398400
    _STATISTICS_WRITING_APP : mkvmerge v20.0.0 ( I Am The Sun ) 64-bit
    _STATISTICS_WRITING_DATE_UTC : 2018-02-09 23:40:59
    _STATISTICS_TAGS : BPS DURATION NUMBER_OF_FRAMES NUMBER_OF_BYTES

    Video
    ID : 13
    Format : AVC
    Format/Info : Advanced Video Codec
    Format profile : [email protected]
    Format settings, CABAC : Yes
    Format settings, ReFrames : 4 frames
    Codec ID : V_MPEG4/ISO/AVC
    Duration : 2h 40mn
    Bit rate : 3 305 Kbps
    Width : 1 920 pixels
    Height : 816 pixels
    Display aspect ratio : 2.35:1
    Frame rate mode : Constant
    Frame rate : 24.000 fps
    Color space : YUV
    Chroma subsampling : 4:2:0
    Bit depth : 8 bits
    Scan type : Progressive
    Bits/(Pixel*Frame) : 0.088
    Stream size : 3.71 GiB (82%)
    Writing library : x264 core 152 r2851 ba24899
    Encoding settings : cabac=1 / ref=3 / deblock=1:0:0 / analyse=0x3:0x113 / me=hex / subme=7 / psy=1 / psy_rd=1.00:0.15 / mixed_ref=1 / me_range=16 / chroma_me=1 / trellis=1 / 8x8dct=1 / cqm=0 / deadzone=21,11 / fast_pskip=1 / chroma_qp_offset=-3 / threads=25 / lookahead_threads=4 / sliced_threads=0 / nr=0 / decimate=1 / interlaced=0 / bluray_compat=0 / constrained_intra=0 / bframes=3 / b_pyramid=2 / b_adapt=1 / b_bias=0 / direct=1 / weightb=1 / open_gop=0 / weightp=2 / keyint=230 / keyint_min=23 / scenecut=40 / intra_refresh=0 / rc_lookahead=40 / rc=2pass / mbtree=1 / bitrate=3305 / ratetol=1.0 / qcomp=0.60 / qpmin=10 / qpmax=51 / qpstep=4 / cplxblur=20.0 / qblur=0.5 / ip_ratio=1.40 / aq=1:1.00
    Language : English
    Default : Yes
    Forced : No
    Color primaries : BT.709
    Transfer characteristics : BT.709
    Matrix coefficients : BT.709

    Audio
    ID : 1
    Format : AC-3
    Format/Info : Audio Coding 3
    Mode extension : CM (complete main)
    Format settings, Endianness : Big
    Codec ID : A_AC3
    Duration : 2h 40mn
    Bit rate mode : Constant
    Bit rate : 640 Kbps
    Channel(s) : 6 channels
    Channel positions : Front: L C R, Side: L R, LFE
    Sampling rate : 48.0 KHz
    Bit depth : 16 bits
    Compression mode : Lossy
    Stream size : 733 MiB (16%)
    Language : Hindi
    Default : Yes
    Forced : No
    DURATION : 02:40:02.459000000
    NUMBER_OF_FRAMES : 230459
    NUMBER_OF_BYTES : 3966347685
    _STATISTICS_WRITING_APP : mkvmerge v20.0.0 ( I Am The Sun ) 64-bit
    _STATISTICS_WRITING_DATE_UTC : 2018-02-09 23:40:59
    _STATISTICS_TAGS : BPS DURATION NUMBER_OF_FRAMES NUMBER_OF_BYTES

    Text #1
    ID : 2
    Format : PGS
    Muxing mode : zlib
    Codec ID : S_HDMV/PGS
    Codec ID/Info : The same subtitle format used on BDs/HD-DVDs
    Language : English
    Default : Yes
    Forced : No

    Text #2
    ID : 3
    Format : PGS
    Muxing mode : zlib
    Codec ID : S_HDMV/PGS
    Codec ID/Info : The same subtitle format used on BDs/HD-DVDs
    Language : Hindi
    Default : No
    Forced : No

    Text #3
    ID : 4
    Format : PGS
    Muxing mode : zlib
    Codec ID : S_HDMV/PGS
    Codec ID/Info : The same subtitle format used on BDs/HD-DVDs
    Language : Arabic
    Default : No
    Forced : No

    Text #4
    ID : 5
    Format : PGS
    Muxing mode : zlib
    Codec ID : S_HDMV/PGS
    Codec ID/Info : The same subtitle format used on BDs/HD-DVDs
    Language : Malay
    Default : No
    Forced : No

    Text #5
    ID : 6
    Format : PGS
    Muxing mode : zlib
    Codec ID : S_HDMV/PGS
    Codec ID/Info : The same subtitle format used on BDs/HD-DVDs
    Language : Indonesian
    Default : No
    Forced : No

    Text #6
    ID : 7
    Format : PGS
    Muxing mode : zlib
    Codec ID : S_HDMV/PGS
    Codec ID/Info : The same subtitle format used on BDs/HD-DVDs
    Language : Thai
    Default : No
    Forced : No

    Text #7
    ID : 8
    Format : PGS
    Muxing mode : zlib
    Codec ID : S_HDMV/PGS
    Codec ID/Info : The same subtitle format used on BDs/HD-DVDs
    Language : Spanish
    Default : No
    Forced : No

    Text #8
    ID : 9
    Format : PGS
    Muxing mode : zlib
    Codec ID : S_HDMV/PGS
    Codec ID/Info : The same subtitle format used on BDs/HD-DVDs
    Language : French
    Default : No
    Forced : No

    Text #9
    ID : 10
    Format : PGS
    Muxing mode : zlib
    Codec ID : S_HDMV/PGS
    Codec ID/Info : The same subtitle format used on BDs/HD-DVDs
    Language : Dutch
    Default : No
    Forced : No

    Text #10
    ID : 11
    Format : PGS
    Muxing mode : zlib
    Codec ID : S_HDMV/PGS
    Codec ID/Info : The same subtitle format used on BDs/HD-DVDs
    Language : Portuguese
    Default : No
    Forced : No

    Text #11
    ID : 12
    Format : PGS
    Muxing mode : zlib
    Codec ID : S_HDMV/PGS
    Codec ID/Info : The same subtitle format used on BDs/HD-DVDs
    Language : Italian
    Default : No
    Forced : No















    Download: cornfile
    http://cornfile.com/fbvkkb8c2k27
    Download: mekafile
    http://www.mekafile.com/dl.php?f=C25960bBhiSy

  2. The Following 4 Users Say Thank You to Duckload.us For This Useful Post:

    amorn wichian (02-11-2018), mta28 (02-11-2018), spiderpud2 (02-23-2018), Wesker_TOT (02-13-2018)

  3. #2
    Senior Member
    Join Date
    Oct 2013
    Posts
    1,238
    Thanks
    0
    Thanked 0 Times in 0 Posts
    ͺسѺ

  4. #3
    Senior Member
    Join Date
    Dec 2013
    Posts
    1,232
    Thanks
    3,156
    Thanked 0 Times in 0 Posts
    ͺسФѺ...

  5. #4
    Senior Member gozilla02's Avatar
    Join Date
    Jul 2012
    Posts
    186
    Thanks
    70
    Thanked 1 Time in 1 Post
    ͺسѺ ҡ ʹѺʹع䫤ФѺ ѾŴ¢⾴ ..
    http://rabbitfileloveav.blogspot.com/ Ŵ˹ѧ AV 18+ش Ѿവءѹ շء 1080P Cornfile 10000 ͧ

Thread Information

Users Browsing this Thread

There are currently 1 users browsing this thread. (0 members and 1 guests)

     

Posting Permissions

  • You may not post new threads
  • You may not post replies
  • You may not post attachments
  • You may not edit your posts