การกลับมาร่วมงานกันเป็นครั้งที่สามของแอ็คชั่นสตาร์ ชื่อดังอย่าง มาร์ค วอห์ลเบิร์ก และ ปีเตอร์ เบิร์ก ผู้กำกับมากฝีมือที่เป็นที่ต้องการของฮอลลีวูด ที่เคยฝากฝีมือไว้ในหนังอย่าง Battleship, Lone Survivor, Deepwater Horizon เรื่องราวว่าด้วยการวางระเบิดก่อการร้ายในงานวิ่งมาร าธอนเมืองบอสตันเมื่อปี 2013 ที่ทำให้คนธรรมดาทั่วไปต้องกลายมาเป็นฮีโร่ด้วยวีรกร รมของพวกเขา หลังจากเหตุการณ์สะเทือนขวัญ จ่า ทอมมี่ ซอนเดอร์ส (มาร์ค วอห์ลเบิร์ก) รวบรวมความกล้าของตัวเองเข้าร่วมกับผู้รอดชีวิตคนอื่ น ตามล่ามือวางระเบิดการแข่งขันบอสตันมาราธอน เพื่อหยุดยั้งวินาศการรมครั้งต่อไปให้ทันเวลา การเรียงร้อยเรื่องราวของ เจ้าหน้าที่พิเศษ ริชาร์ด เดสลอว์รี่ส์ (เควิน เบคอน) ผู้หมวด เอ็ด เดวิส ผู้กอง เอ็ด เดวิส (จอหน์ กู๊ดแมน) จ่า เจ็ฟฟรี่ พูกรีสซ์ (เจ.เค. ซิมมอนส์) และนางพยาบาล แครอล ซอนเดอร์ส (มิเชล โมนาแกน) ภาพยนตร์บีบคั้นอารมณ์ ที่จะทำให้คุณลืมกระพริบตา กับการตามล่ามือระเบิดครั้งที่ซับซ้อนที่สุดในประวัต ิศาสตร์ ที่จะทำให้คุณได้ซึ้งถึงความกลมเกลียวของชาวเมืองบอส ตัน!!!



Quote:
:zeza-SirensJY2U:*ดู INFO Report คลิ๊ก!*

Format : Matroska
Format version : Version 4 / Version 2
File size : 68.1 GiB
Duration : 2 h 13 min
Overall bit rate : 73.2 Mb/s
Encoded date : UTC 2018-02-08 12:12:57
Writing application : mkvmerge v19.0.0 ( Brave Captain ) 64-bit
Writing library : libebml v1.3.5 + libmatroska v1.4.8

Video
ID : 1
Format : HEVC
Format/Info : High Efficiency Video Coding
Format profile : Main [email protected]@High
Codec ID : V_MPEGH/ISO/HEVC
Duration : 2 h 13 min
Bit rate : 66.1 Mb/s
Width : 3 840 pixels
Height : 2 160 pixels
Display aspect ratio : 16:9
Frame rate mode : Constant
Frame rate : 23.976 (24000/1001) FPS
Color space : YUV
Chroma subsampling : 4:2:0 (Type 2)
Bit depth : 10 bits
Bits/(Pixel*Frame) : 0.332
Stream size : 61.5 GiB (90%)
Default : Yes
Forced : No
Color range : Limited
Color primaries : BT.2020
Transfer characteristics : PQ
Matrix coefficients : BT.2020 non-constant
Mastering display color primaries : R: x=0.680000 y=0.320000, G: x=0.265000 y=0.690000, B: x=0.150000 y=0.060000, White point: x=0.312680 y=0.329000
Mastering display luminance : min: 0.0000 cd/m2, max: 1000 cd/m2
Maximum Content Light Level : 1000 cd/m2
Maximum Frame-Average Light Level : 510 cd/m2

Audio #1
ID : 2
Format : DTS
Format/Info : Digital Theater Systems
Format profile : X / MA / Core
Codec ID : A_DTS
Duration : 2 h 13 min
Bit rate mode : Variable / Variable / Constant
Bit rate : 4 280 kb/s / 4 280 kb/s / 1 509 kb/s
Channel(s) : Object Based / 8 channels / 6 channels
Channel positions : Object Based / Front: L C R, Side: L R, Back: L R, LFE / Front: L C R, Side: L R, LFE
Sampling rate : / 48.0 kHz / 48.0 kHz
Frame rate : 93.750 FPS (512 SPF)
Bit depth : / 24 bits / 24 bits
Compression mode : / Lossless / Lossy
Stream size : 3.98 GiB (6%)
Language : English
Default : No
Forced : No

Audio #2
ID : 3
Format : AC-3
Format/Info : Audio Coding 3
Codec ID : A_AC3
Duration : 2 h 13 min
Bit rate mode : Constant
Bit rate : 640 kb/s
Channel(s) : 6 channels
Channel positions : Front: L C R, Side: L R, LFE
Sampling rate : 48.0 kHz
Frame rate : 31.250 FPS (1536 SPF)
Bit depth : 16 bits
Compression mode : Lossy
Stream size : 610 MiB (1%)
Language : Spanish
Service kind : Complete Main
Default : No
Forced : No

Audio #3
ID : 4
Format : AC-3
Format/Info : Audio Coding 3
Codec ID : A_AC3
Duration : 2 h 13 min
Bit rate mode : Constant
Bit rate : 640 kb/s
Channel(s) : 6 channels
Channel positions : Front: L C R, Side: L R, LFE
Sampling rate : 48.0 kHz
Frame rate : 31.250 FPS (1536 SPF)
Bit depth : 16 bits
Compression mode : Lossy
Stream size : 610 MiB (1%)
Language : French
Service kind : Complete Main
Default : No
Forced : No

Audio #4
ID : 5
Format : AC-3
Format/Info : Audio Coding 3
Codec ID : A_AC3
Duration : 2 h 13 min
Bit rate mode : Constant
Bit rate : 224 kb/s
Channel(s) : 2 channels
Channel positions : Front: L R
Sampling rate : 48.0 kHz
Frame rate : 31.250 FPS (1536 SPF)
Bit depth : 16 bits
Compression mode : Lossy
Stream size : 213 MiB (0%)
Language : English
Service kind : Complete Main
Default : No
Forced : No

Audio #5
ID : 6
Format : DTS
Format/Info : Digital Theater Systems
Codec ID : A_DTS
Duration : 2 h 13 min
Bit rate mode : Constant
Bit rate : 768 kb/s
Channel(s) : 2 channels
Channel positions : Front: L R
Sampling rate : 48.0 kHz
Frame rate : 93.750 FPS (512 SPF)
Bit depth : 24 bits
Compression mode : Lossy
Stream size : 732 MiB (1%)
Language : English
Default : No
Forced : No

Audio #6
ID : 12
Format : AC-3
Format/Info : Audio Coding 3
Codec ID : A_AC3
Duration : 2 h 13 min
Bit rate mode : Constant
Bit rate : 448 kb/s
Channel(s) : 6 channels
Channel positions : Front: L C R, Side: L R, LFE
Sampling rate : 48.0 kHz
Frame rate : 31.250 FPS (1536 SPF)
Bit depth : 16 bits
Compression mode : Lossy
Delay relative to video : 490 ms
Stream size : 427 MiB (1%)
Title : Thai DVD Master
Language : Thai
Service kind : Complete Main
Default : Yes
Forced : Yes

Text #1
ID : 7
Format : PGS
Muxing mode : zlib
Codec ID : S_HDMV/PGS
Codec ID/Info : Picture based subtitle format used on BDs/HD-DVDs
Duration : 2 h 12 min
Bit rate : 47.5 kb/s
Count of elements : 4050
Stream size : 44.9 MiB (0%)
Language : English
Default : Yes
Forced : No

Text #2
ID : 8
Format : PGS
Muxing mode : zlib
Codec ID : S_HDMV/PGS
Codec ID/Info : Picture based subtitle format used on BDs/HD-DVDs
Duration : 2 h 12 min
Bit rate : 61.5 kb/s
Count of elements : 4732
Stream size : 58.4 MiB (0%)
Language : French
Default : No
Forced : No

Text #3
ID : 9
Format : PGS
Muxing mode : zlib
Codec ID : S_HDMV/PGS
Codec ID/Info : Picture based subtitle format used on BDs/HD-DVDs
Duration : 2 h 12 min
Bit rate : 41.6 kb/s
Count of elements : 3684
Stream size : 39.4 MiB (0%)
Language : English
Default : No
Forced : No

Text #4
ID : 10
Format : PGS
Muxing mode : zlib
Codec ID : S_HDMV/PGS
Codec ID/Info : Picture based subtitle format used on BDs/HD-DVDs
Duration : 2 h 3 min
Bit rate : 2 524 b/s
Count of elements : 154
Stream size : 2.23 MiB (0%)
Language : French
Default : No
Forced : No

Text #5
ID : 11
Format : PGS
Muxing mode : zlib
Codec ID : S_HDMV/PGS
Codec ID/Info : Picture based subtitle format used on BDs/HD-DVDs
Duration : 2 h 11 min
Bit rate : 1 902 b/s
Count of elements : 136
Stream size : 1.79 MiB (0%)
Language : Spanish
Default : No
Forced : No

Text #6
ID : 13
Format : PGS
Muxing mode : zlib
Codec ID : S_HDMV/PGS
Codec ID/Info : Picture based subtitle format used on BDs/HD-DVDs
Duration : 2 h 5 min
Bit rate : 61.7 kb/s
Count of elements : 3630
Stream size : 55.4 MiB (0%)
Title : Thai_PGS
Language : Thai
Default : No
Forced : No

Text #7
ID : 14
Format : PGS
Muxing mode : zlib
Codec ID : S_HDMV/PGS
Codec ID/Info : Picture based subtitle format used on BDs/HD-DVDs
Duration : 2 h 5 min
Bit rate : 61.7 kb/s
Count of elements : 3630
Stream size : 55.4 MiB (0%)
Title : Thai_PGS_Yellow
Language : Thai
Default : No
Forced : No

Menu
00:00:00.000 : en:Chapter 1
00:08:29.842 : en:Chapter 2
00:17:47.608 : en:Chapter 3
00:23:56.143 : en:Chapter 4
00:32:35.745 : en:Chapter 5
00:41:43.834 : en:Chapter 6
00:49:22.751 : en:Chapter 7
00:58:34.761 : en:Chapter 8
01:07:05.855 : en:Chapter 9
01:19:06.116 : en:Chapter 10
01:24:14.674 : en:Chapter 11
01:33:47.747 : en:Chapter 12
01:45:16.476 : en:Chapter 13
01:50:22.657 : en:Chapter 14
01:57:54.484 : en:Chapter 15
02:05:25.768 : en:Chapter 16






Download: mekafile
http://www.mekafile.com/dl.php?f=JDfcd3bBjuPG
Download: cornfile
http://cornfile.com/ndqbmtrlxk66