+ Reply to Thread
Results 1 to 1 of 1
  1. #1
    Administrators Duckload.us's Avatar
    Join Date
    Dec 2010
    Posts
    89,755
    Thanks
    9
    Thanked 93,084 Times in 44,813 Posts

    Cool []-[ҡ/Ѻ¤سҾҡ Netflix] star.trek.discovery.s01e15.1080p.TH.EN.NF.WEB-DL.5.1-HDTV.H.264.1080p. [From HD-TV]-[ҡ ]

    Star Trek: Discovery



    Rating: 7.4/10 Year: n/A Genres: Action / Adventure / Drama / Sci-Fi Runtime: 60 min Language: English / Klingon Director: n/A Writers: Kirsten Beyer / Bryan Fuller / Alex Kurtzman Cast: Sonequa Martin-Green / Doug Jones / Shazad LatifPlot:

    n/A








    Quote:
    ҡ/ENG Ѻ PGS VOB / ENG ҡ NETFLIX


    Quote:
    ͧ
    Ten years before Kirk, Spock and the Enterprise, the USS Discovery discovers new worlds and lifeforms as one Starfleet officer learns to understand all things alien.







    Quote:
    General
    Format : Matroska
    Format version : Version 4 / Version 2
    File size : 1.26 GiB
    Duration : 45 min 49 s
    Overall bit rate mode : Variable
    Overall bit rate : 3 949 kb/s
    Encoded date : UTC 2018-02-12 11:20:57
    Writing application : mkvmerge v17.0.0 ( Be Ur Friend ) 64-bit
    Writing library : libebml v1.3.5 + libmatroska v1.4.8

    Video
    ID : 1
    Format : AVC
    Format/Info : Advanced Video Codec
    Format profile : [email protected]
    Format settings : CABAC / 3 Ref Frames
    Format settings, CABAC : Yes
    Format settings, RefFrames : 3 frames
    Codec ID : V_MPEG4/ISO/AVC
    Duration : 45 min 49 s
    Bit rate mode : Variable
    Bit rate : 3 160 kb/s
    Maximum bit rate : 4 740 kb/s
    Width : 1 920 pixels
    Height : 1 080 pixels
    Display aspect ratio : 16:9
    Frame rate mode : Constant
    Frame rate : 23.976 (24000/1001) FPS
    Color space : YUV
    Chroma subsampling : 4:2:0
    Bit depth : 8 bits
    Scan type : Progressive
    Bits/(Pixel*Frame) : 0.064
    Stream size : 1 006 MiB (78%)
    Writing library : x264 core 148 r2715 7e75228
    Encoding settings : cabac=1 / ref=3 / deblock=1:0:0 / analyse=0x1:0x111 / me=umh / subme=10 / psy=1 / psy_rd=1.00:0.00 / mixed_ref=1 / me_range=24 / chroma_me=1 / trellis=2 / 8x8dct=0 / cqm=0 / deadzone=21,11 / fast_pskip=1 / chroma_qp_offset=-2 / threads=8 / lookahead_threads=1 / sliced_threads=0 / nr=0 / decimate=1 / interlaced=0 / bluray_compat=0 / stitchable=1 / constrained_intra=0 / bframes=2 / b_pyramid=0 / b_adapt=2 / b_bias=0 / direct=3 / weightb=1 / open_gop=0 / weightp=2 / keyint=48 / keyint_min=25 / scenecut=0 / intra_refresh=0 / rc_lookahead=48 / rc=2pass / mbtree=1 / bitrate=3160 / ratetol=1.0 / qcomp=0.50 / qpmin=6 / qpmax=51 / qpstep=4 / cplxblur=20.0 / qblur=0.5 / vbv_maxrate=4740 / vbv_bufsize=6320 / nal_hrd=vbr / filler=0 / ip_ratio=1.40 / aq=1:1.00
    Default : Yes
    Forced : No

    Audio #1
    ID : 2
    Format : AC-3
    Format/Info : Audio Coding 3
    Format settings, Endianness : Big
    Codec ID : A_AC3
    Duration : 45 min 49 s
    Bit rate mode : Constant
    Bit rate : 384 kb/s
    Channel(s) : 6 channels
    Channel positions : Front: L C R, Side: L R, LFE
    Sampling rate : 48.0 kHz
    Frame rate : 31.250 FPS (1536 SPF)
    Bit depth : 16 bits
    Compression mode : Lossy
    Stream size : 126 MiB (10%)
    Title : EN
    Language : English
    Service kind : Complete Main
    Default : No
    Forced : No

    Audio #2
    ID : 3
    Format : AC-3
    Format/Info : Audio Coding 3
    Format settings, Endianness : Big
    Codec ID : A_AC3
    Duration : 45 min 49 s
    Bit rate mode : Constant
    Bit rate : 448 kb/s
    Channel(s) : 2 channels
    Channel positions : Front: L R
    Sampling rate : 48.0 kHz
    Frame rate : 31.250 FPS (1536 SPF)
    Bit depth : 16 bits
    Compression mode : Lossy
    Stream size : 147 MiB (11%)
    Title : TH
    Language : Thai
    Service kind : Complete Main
    Default : Yes
    Forced : No

    Text #1
    ID : 4
    Format : UTF-8
    Codec ID : S_TEXT/UTF8
    Codec ID/Info : UTF-8 Plain Text
    Duration : 37 min 9 s
    Bit rate : 4 b/s
    Count of elements : 36
    Stream size : 1.10 KiB (0%)
    Title : Klingons
    Language : English
    Default : No
    Forced : No

    Text #2
    ID : 5
    Format : UTF-8
    Codec ID : S_TEXT/UTF8
    Codec ID/Info : UTF-8 Plain Text
    Duration : 44 min 0 s
    Bit rate : 68 b/s
    Count of elements : 577
    Stream size : 22.1 KiB (0%)
    Title : EN
    Language : English
    Default : No
    Forced : No

    Text #3
    ID : 6
    Format : PGS
    Muxing mode : zlib
    Codec ID : S_HDMV/PGS
    Codec ID/Info : Picture based subtitle format used on BDs/HD-DVDs
    Duration : 45 min 4 s
    Bit rate : 60.6 kb/s
    Count of elements : 1046
    Stream size : 19.5 MiB (2%)
    Title : TH_PGS
    Language : Thai
    Default : No
    Forced : No

    Text #4
    ID : 7
    Format : VobSub
    Muxing mode : zlib
    Codec ID : S_VOBSUB
    Codec ID/Info : Picture based subtitle format used on DVDs
    Duration : 45 min 4 s
    Bit rate : 12.2 kb/s
    Count of elements : 523
    Stream size : 3.95 MiB (0%)
    Title : TH_VOB
    Language : Thai
    Default : No
    Forced : No


    Download: filecondo
    http://www.filecondo.com/dl.php?f=ce38421ELwCk
    Download: cornfile
    http://cornfile.com/i7ife4lk3yof
    Download: mekafile
    http://www.mekafile.com/dl.php?f=1C974dbBmKt7

  2. The Following User Says Thank You to Duckload.us For This Useful Post:

    gaszolineskywalker (02-15-2018)

Thread Information

Users Browsing this Thread

There are currently 1 users browsing this thread. (0 members and 1 guests)

     

Posting Permissions

  • You may not post new threads
  • You may not post replies
  • You may not post attachments
  • You may not edit your posts