+ Reply to Thread
Results 1 to 2 of 2
  1. #1
    Administrators Duckload.us's Avatar
    Join Date
    Dec 2010
    Posts
    85,614
    Thanks
    9
    Thanked 89,980 Times in 43,100 Posts

    Question []-The Ritual Ҧҵ ԭҳͧ(Netflix 2018) sub thai PGS ҡ netflix-WEB-DL.AC-3.1080p. [Rip]-[Soundtrack ]



    The Ritual




    Rating: 6.3/10 Year: 2017 Genres: Horror Runtime: 94 min Language: English Director: David Bruckner Writers: Joe Barton / Adam Nevill Cast: Rafe Spall / Arsher Ali / Robert James-CollierPlot:

    n/A







    The Ritual Ҧҵ ԭҳͧ(Netflix 2018)



    Subtitle : Thai PGS , ENG SRT(Netflix)
    Sound : ENG AC3





    Format : Matroska
    Format version : Version 4 / Version 2
    File size : 3.26 GiB
    Duration : 1 h 34 min
    Overall bit rate : 4 926 kb/s
    Encoded date : UTC 2018-02-12 23:32:39
    Writing application : mkvmerge v20.0.0 ( I Am The Sun ) 64-bit
    Writing library : libebml v1.3.5 + libmatroska v1.4.8

    Video
    ID : 2
    Format : AVC
    Format/Info : Advanced Video Codec
    Format profile : [email protected]
    Format settings : CABAC / 2 Ref Frames
    Format settings, CABAC : Yes
    Format settings, RefFrames : 2 frames
    Format settings, GOP : M=1, N=12
    Codec ID : V_MPEG4/ISO/AVC
    Duration : 1 h 34 min
    Bit rate : 4 722 kb/s
    Width : 1 920 pixels
    Height : 1 080 pixels
    Display aspect ratio : 16:9
    Frame rate mode : Constant
    Frame rate : 23.976 (23976/1000) FPS
    Color space : YUV
    Chroma subsampling : 4:2:0
    Bit depth : 8 bits
    Scan type : Progressive
    Bits/(Pixel*Frame) : 0.095
    Stream size : 3.12 GiB (96%)
    Default : Yes
    Forced : No

    Audio
    ID : 1
    Format : E-AC-3
    Format/Info : Enhanced Audio Coding 3
    Format settings, Endianness : Big
    Codec ID : A_EAC3
    Duration : 1 h 34 min
    Bit rate mode : Constant
    Bit rate : 192 kb/s
    Channel(s) : 6 channels
    Channel positions : Front: L C R, Side: L R, LFE
    Sampling rate : 48.0 kHz
    Frame rate : 187.500 FPS (256 SPF)
    Compression mode : Lossy
    Delay relative to video : -42 ms
    Stream size : 130 MiB (4%)
    Service kind : Complete Main
    Default : Yes
    Forced : No

    Text #1
    ID : 3
    Format : UTF-8
    Codec ID : S_TEXT/UTF8
    Codec ID/Info : UTF-8 Plain Text
    Duration : 1 h 29 min
    Bit rate : 53 b/s
    Count of elements : 1239
    Stream size : 34.9 KiB (0%)
    Default : Yes
    Forced : No

    Text #2
    ID : 4
    Format : PGS
    Muxing mode : zlib
    Codec ID : S_HDMV/PGS
    Codec ID/Info : Picture based subtitle format used on BDs/HD-DVDs
    Duration : 1 h 29 min
    Bit rate : 25.9 kb/s
    Count of elements : 1766
    Stream size : 16.6 MiB (0%)
    Default : No
    Forced : No




    -= Screenshots =-






    -= Trailers =-


    Download: cornfile
    http://cornfile.com/bzqh9jyg0hwl
    Download: mekafile
    http://www.mekafile.com/dl.php?f=ls26aabBn3aD
    or
    http://www.mekafile.com/dl.php?f=ZG26aabBpjCR

  2. The Following 3 Users Say Thank You to Duckload.us For This Useful Post:

    amorn wichian (02-14-2018), bigbang06 (02-13-2018), NaiWan (02-14-2018)

  3. #2
    Senior Member gozilla02's Avatar
    Join Date
    Jul 2012
    Posts
    105
    Thanks
    52
    Thanked 1 Time in 1 Post
    ͺسѺ ҡ ʹѺʹع䫤ФѺ ѾŴ¢⾴ ....
    http://rabbitfileloveav.blogspot.com/ Ŵ˹ѧ AV 18+ش Ѿവءѹ շء 1080P Cornfile 10000 ͧ

Thread Information

Users Browsing this Thread

There are currently 1 users browsing this thread. (0 members and 1 guests)

     

Posting Permissions

  • You may not post new threads
  • You may not post replies
  • You may not post attachments
  • You may not edit your posts