+ Reply to Thread
Results 1 to 5 of 5
  1. #1
    Administrators Duckload.us's Avatar
    Join Date
    Dec 2010
    Posts
    89,975
    Thanks
    9
    Thanked 93,228 Times in 44,865 Posts

    Question []-͹!!+[ҾѴдѺ] Guardians of the Tomb (2018) : Ѿ⤵ [1080p] [* WEB-DL.H264.AC-3.THR5.1 [email protected] *] [ҡç 5.1 + §ѧ DD5.1] [Modified]





    Ҿ¹礪ѹ ŧҹͧ ù
    Ѻä鹾ȵ üǧ֡Ӻþ ѡԹ ѵþɔ ٧մԺ ͹ǧ!


    [email protected]
    ҡç 5.1 + §ѧ DD5.1



    wrote:

    Guardians of the Tomb ͧǢͧѡԷʵӡä鹾ȵ üǧ֡Ӻþ ǡҵͧҪԵʹҡá ѡԹ ѵþɔ ٧մԺ ͹ǧ ͤ鹾ѺѡôԨչ级ҡ 2,000 ѧ͡ä鹾!


    wrote:

    Format : Matroska
    File size : 3.40 GiB
    Duration : 1 h 30 min
    Overall bit rate : 5 375 kb/s

    Movie name : [email protected]ts

    Video
    ID : 1
    Format : AVC
    Format/Info : Advanced Video Codec
    Format profile : [email protected]
    Format settings : CABAC / 5 Ref Frames
    Format settings, CABAC : Yes
    Format settings, ReFrames : 5 frames
    Codec ID : V_MPEG4/ISO/AVC
    Duration : 1 h 30 min
    Bit rate : 4 533 kb/s
    Width : 1 904 pixels
    Height : 800 pixels
    Display aspect ratio : 2.40:1
    Frame rate mode : Constant
    Frame rate : 23.976 (24000/1001) FPS
    Color space : YUV
    Chroma subsampling : 4:2:0
    Bit depth : 8 bits
    Scan type : Progressive
    Bits/(Pixel*Frame) : 0.124
    Stream size : 2.87 GiB (84%)
    Title : [email protected]ts
    Language : English
    Default : Yes
    Forced : No
    Color range : Limited
    Color primaries : BT.709
    Transfer characteristics : BT.709
    Matrix coefficients : BT.709

    Audio #1
    ID : 2
    Format : AC-3
    Format/Info : Audio Coding 3
    Codec ID : A_AC3
    Duration : 1 h 30 min
    Bit rate mode : Constant
    Bit rate : 448 kb/s
    Channel(s) : 6 channels
    Channel positions : Front: L C R, Side: L R, LFE
    Sampling rate : 48.0 kHz
    Frame rate : 31.250 FPS (1536 SPF)
    Bit depth : 16 bits
    Compression mode : Lossy
    Delay relative to video : -42 ms
    Stream size : 290 MiB (8%)
    Title : THR 5.1 Modified By ~Mr.Captain~
    Language : Thai
    Service kind : Complete Main
    Default : Yes
    Forced : No

    Audio #2
    ID : 3
    Format : AC-3
    Format/Info : Audio Coding 3
    Codec ID : A_AC3
    Duration : 1 h 30 min
    Bit rate mode : Constant
    Bit rate : 384 kb/s
    Channel(s) : 6 channels
    Channel positions : Front: L C R, Side: L R, LFE
    Sampling rate : 48.0 kHz
    Frame rate : 31.250 FPS (1536 SPF)
    Bit depth : 16 bits
    Compression mode : Lossy
    Delay relative to video : -42 ms
    Stream size : 249 MiB (7%)
    Title : English DD5.1
    Language : English
    Service kind : Complete Main
    Default : No
    Forced : No

    Menu
    00:00:00.000 : en:Chapter 1
    00:09:45.585 : en:Chapter 2
    00:19:48.187 : en:Chapter 3
    00:30:26.825 : en:Chapter 4
    00:41:26.484 : en:Chapter 5
    00:51:28.085 : en:Chapter 6
    01:02:04.721 : en:Chapter 7
    01:10:16.212 : en:Chapter 8
    01:23:21.997 : en:Chapter 9



    wrote:












    Quote:






    Download: cornfile
    http://cornfile.com/q7k2gefkdt58
    Download: mekafile
    http://www.mekafile.com/dl.php?f=I07100bCnxeZ

  2. The Following 4 Users Say Thank You to Duckload.us For This Useful Post:

    Posedon (03-11-2018), prasert.pp (03-10-2018), Tellmon (03-13-2018), Wesker_TOT (03-13-2018)

  3. #2
    Senior Member gozilla02's Avatar
    Join Date
    Jul 2012
    Posts
    134
    Thanks
    63
    Thanked 1 Time in 1 Post
    ͺس ....˹ѧչ
    http://rabbitfileloveav.blogspot.com/ Ŵ˹ѧ AV 18+ش Ѿവءѹ շء 1080P Cornfile 10000 ͧ

  4. #3
    Senior Member
    Join Date
    Oct 2013
    Posts
    1,051
    Thanks
    0
    Thanked 0 Times in 0 Posts
    ͺسѺ

  5. #4
    Senior Member Posedon's Avatar
    Join Date
    Apr 2011
    Posts
    826
    Thanks
    864
    Thanked 0 Times in 0 Posts
    Thank you very much

  6. #5
    Senior Member
    Join Date
    Dec 2013
    Posts
    1,158
    Thanks
    3,079
    Thanked 0 Times in 0 Posts
    ͺسҡѺ...

Thread Information

Users Browsing this Thread

There are currently 1 users browsing this thread. (0 members and 1 guests)

     

Posting Permissions

  • You may not post new threads
  • You may not post replies
  • You may not post attachments
  • You may not edit your posts