+ Reply to Thread
Results 1 to 2 of 2
  1. #1
    Administrators Duckload.us's Avatar
    Join Date
    Dec 2010
    Posts
    93,491
    Thanks
    9
    Thanked 95,942 Times in 46,169 Posts

    Question []-!!͹+[Ѵ V.2] Insidious: The Last Key (2018) : ԭҳԴ: حᨼպ͡ [720p] [* WEB-DL-X264.AC-3.THR2.0 [email protected] *] [ҡç 2.0 + §ѧ 2.0]





    ҹ ٤ͧӡѺ ҹ Ѻҹͤͧա

    [email protected]
    ҡç 2.0 + §ѧ 2.0




    wrote:

    Insidious: The Last Key Ҿ¹Ҥͧ 4 ѺѺش͹˹͸ҵ

    ͧҤҡѺѧҹҢͧ Dr. Elise Rainier سҼöԴ͡Ѻԭҳͼ 餹ҡҤ͹ Ѻ Lin Shaye Ҥ ͨеͧѺ༪ԭ˹ҡѺ֡Ѻչ حᨔ о֧



    wrote:

    Format : Matroska
    File size : 1.65 GiB
    Duration : 1 h 38 min
    Overall bit rate : 2 390 kb/s

    Movie name : [email protected]ts

    Video
    ID : 1
    Format : AVC
    Format/Info : Advanced Video Codec
    Format profile : [email protected]
    Format settings : CABAC / 4 Ref Frames
    Format settings, CABAC : Yes
    Format settings, ReFrames : 4 frames
    Codec ID : V_MPEG4/ISO/AVC
    Duration : 1 h 38 min
    Bit rate : 2 000 kb/s
    Width : 1 280 pixels
    Height : 720 pixels
    Display aspect ratio : 16:9
    Frame rate mode : Constant
    Frame rate : 23.976 (24000/1001) FPS
    Color space : YUV
    Chroma subsampling : 4:2:0
    Bit depth : 8 bits
    Scan type : Progressive
    Bits/(Pixel*Frame) : 0.091
    Stream size : 1.38 GiB (84%)
    Title : [email protected]ts
    Writing library : x264 core 119
    Encoding settings : cabac=1 / ref=1 / deblock=1:0:0 / analyse=0x1:0x1 / me=dia / subme=1 / psy=1 / psy_rd=1.00:0.00 / mixed_ref=0 / me_range=16 / chroma_me=1 / trellis=0 / 8x8dct=0 / cqm=0 / deadzone=21,11 / fast_pskip=1 / chroma_qp_offset=0 / threads=4 / sliced_threads=0 / nr=0 / decimate=1 / interlaced=0 / bluray_compat=0 / constrained_intra=0 / bframes=3 / b_pyramid=2 / b_adapt=1 / b_bias=0 / direct=1 / weightb=1 / open_gop=0 / weightp=1 / keyint=250 / keyint_min=23 / scenecut=40 / intra_refresh=0 / rc=abr / mbtree=0 / bitrate=2000 / ratetol=1.0 / qcomp=0.60 / qpmin=0 / qpmax=69 / qpstep=4 / ip_ratio=1.40 / pb_ratio=1.30 / aq=1:1.00
    Language : English
    Default : Yes
    Forced : No

    Audio #1
    ID : 2
    Format : AC-3
    Format/Info : Audio Coding 3
    Codec ID : A_AC3
    Duration : 1 h 38 min
    Bit rate mode : Constant
    Bit rate : 192 kb/s
    Channel(s) : 2 channels
    Channel positions : Front: L R
    Sampling rate : 48.0 kHz
    Frame rate : 31.250 FPS (1536 SPF)
    Bit depth : 16 bits
    Compression mode : Lossy
    Delay relative to video : -83 ms
    Stream size : 136 MiB (8%)
    Title : THR 2.0 Modified By ~Mr.Captain~
    Language : Thai
    Service kind : Complete Main
    Default : Yes
    Forced : No

    Audio #2
    ID : 3
    Format : MPEG Audio
    Format version : Version 1
    Format profile : Layer 3
    Format settings : Joint stereo / MS Stereo
    Codec ID : A_MPEG/L3
    Codec ID/Hint : MP3
    Duration : 1 h 38 min
    Bit rate mode : Constant
    Bit rate : 192 kb/s
    Channel(s) : 2 channels
    Sampling rate : 44.1 kHz
    Frame rate : 38.281 FPS (1152 SPF)
    Compression mode : Lossy
    Delay relative to video : -83 ms
    Stream size : 136 MiB (8%)
    Title : English 2.0
    Language : English
    Default : No
    Forced : No



    wrote:












    Quote:




    Download: cornfile
    http://cornfile.com/610qm7uygf1p
    Download: mekafile
    http://www.mekafile.com/dl.php?f=BTe80fbCtjas

  2. The Following 2 Users Say Thank You to Duckload.us For This Useful Post:

    Tellmon (03-13-2018), Wesker_TOT (03-13-2018)

  3. #2
    Senior Member
    Join Date
    Dec 2013
    Posts
    1,211
    Thanks
    3,129
    Thanked 0 Times in 0 Posts
    ͺسѺ...

Thread Information

Users Browsing this Thread

There are currently 1 users browsing this thread. (0 members and 1 guests)

     

Posting Permissions

  • You may not post new threads
  • You may not post replies
  • You may not post attachments
  • You may not edit your posts