+ Reply to Thread
Results 1 to 2 of 2
  1. #1
    Administrators Duckload.us's Avatar
    Join Date
    Dec 2010
    Posts
    87,540
    Thanks
    9
    Thanked 91,688 Times in 44,052 Posts

    Question [จีน]-ใหม่!!+ภาพชัดระดับ (4K) • [* การกลับมาของอสูรตัวน้อยที่ยังน่ารักและฮาเหมือนเดิม ! *] • Monster Hunt 2 (2018) : มอนสเตอร์ฮันท์ 2 • [2160p] • [* WEB-DL.X264.AC-3.THR2.0 [email protected] *] • [*[email protected]*] • [พากย์ไทยโรง 2.0 + เสียงจีน 2.0]





    ภาพยนตร์แฟนตาซีซึ่งผสมผสานระหว่างภาพซีจีกับหนังกำล ังภายในของผกก.
    รามัน ฮุย

    การกลับมาอีกครั้งของเจ้าอสูรหัวไชเท้า วูปา!
    &

    ••• [email protected] •••
    พากย์ไทยโรง 2.0 + เสียงจีน 2.0




    wrote:

    Monster Hunt 2 เรื่องราวต่อเนื่องหลังจากที่วูปาได้แยกทางกับผู้ปกค รองมนุษย์อย่าง เทียนหยิน (จิ่งป๋อหรัน) และเชี่ยวหนาน (ไป๋ไป่เหอ) เขาจำต้องเดินทางด้วยตนเอง ความสันติยังไม่ได้กลับคืนมาสู่โลกแห่งปิศาจ แม้ว่าปิศาจชั่วร้ายได้ตายไปแล้วก็ตาม ค่าหัวของการตามล่าวูปาได้เพิ่มสูงขึ้นเป็นทวีคูณ ทำให้วูปาไม่มีทางเลือกนอกจากเขาจะต้องหลบซ่อนอีกครั ้งหนึ่ง

    วูปาเดินทางแบบหลบๆ ซ่อนๆ จนกระทั่งไปเจอกับนักพนันนามว่า ตู้ (เหลียงเฉาเหว่ย) ที่ตอนนี้กำลังเป็นหนี้การพนันและทำอะไรไม่เป็นชิ้นเ ป็นอัน ทั้งคู่ได้กลายเป็นมิตรด้วยสถานการณ์จำยอม

    สิ่งต่างๆ ในโลกมนุษย์เริ่มจะดีขึ้นมา เมื่อเทียนหยินได้ออกเดินทางไปพร้อมกับเชี่ยวหนาน เพื่อตามหาพ่อที่ไม่ได้เจอกันนาน ในขณะที่เดินทาง พวกเขาได้พบกับหัวหน้านักล่าปิศาจคนใหม่ นามว่า ผู้การหยุน (โย หยาง) ที่ทราบถึงที่อยู่ของพ่อเทียนหยิน แต่เมื่อเขาเข้าใกล้ตามหาพ่อของเขาเจอ เขาได้ทราบถึงค่าหัวที่เพิ่มขึ้นของวูปา ทำให้ทั้งคู่สับสนว่าจะไปตามหาพ่อ หรือ จะกลับไปช่วยเหลือวูปา

    ในขณะเดียวกัน ทั้งวูปา และ ตู้ กำลังตกอยู่ในที่นั่งลำบากเมื่อทั้งคู่ได้ทราบถึงควา มลับอันแสนอันตรายจากหน่วยงานนักล่าปิศาจที่มีแผนจะเ ปลี่ยนแปลงพลังอำนาจของโลกมนุษย์และโลกของปิศาจ

    ตลอดการผจญภัย ตู้ ได้เรียนรู้คุณค่าของมิตรภาพและคำสัญญาที่จะต้องปกป้ องวูปาให้พ้นจากอันตราย และถึงแม้ว่าทั้งเทียน หยิน และ เชี่ยวหนาน จะกลับมาช่วยวูปาทัน พวกเขาก็ยังไม่รู้อยู่ดีว่าความอันตรายแบบไหนกันแน่ท ี่กำลังรอพวกเขาอยู่



    wrote:

    Format : Matroska
    File size : 5.40 GiB
    Duration : 1 h 50 min
    Overall bit rate : 7 009 kb/s

    Movie name : [email protected]

    Video
    ID : 1
    Format : AVC
    Format/Info : Advanced Video Codec
    Format profile : [email protected]
    Format settings : CABAC / 3 Ref Frames
    Format settings, CABAC : Yes
    Format settings, ReFrames : 3 frames
    Codec ID : V_MPEG4/ISO/AVC
    Duration : 1 h 50 min
    Bit rate : 6 751 kb/s
    Width : 3 840 pixels
    Height : 1 616 pixels
    Display aspect ratio : 2.40:1
    Frame rate mode : Constant
    Frame rate : 24.000 FPS
    Color space : YUV
    Chroma subsampling : 4:2:0
    Bit depth : 8 bits
    Scan type : Progressive
    Bits/(Pixel*Frame) : 0.045
    Stream size : 5.20 GiB (96%)
    Title : [email protected]
    Writing library : qiyi.com vtc-test
    Language : Chinese
    Default : Yes
    Forced : No
    Color range : Limited
    Color primaries : BT.709
    Transfer characteristics : BT.709
    Matrix coefficients : BT.709

    Audio #1
    ID : 2
    Format : AC-3
    Format/Info : Audio Coding 3
    Codec ID : A_AC3
    Duration : 1 h 50 min
    Bit rate mode : Constant
    Bit rate : 192 kb/s
    Channel(s) : 2 channels
    Channel positions : Front: L R
    Sampling rate : 48.0 kHz
    Frame rate : 31.250 FPS (1536 SPF)
    Bit depth : 16 bits
    Compression mode : Lossy
    Stream size : 151 MiB (3%)
    Title : THR 2.0 Modified By ~Mr.Captain~
    Language : Thai
    Service kind : Complete Main
    Default : Yes
    Forced : Yes

    Audio #2
    ID : 3
    Format : AAC
    Format/Info : Advanced Audio Codec
    Format profile : HE-AAC / LC
    Format settings : Explicit
    Codec ID : A_AAC-2
    Duration : 1 h 50 min
    Bit rate : 62.9 kb/s
    Channel(s) : 2 channels
    Channel positions : Front: L R
    Sampling rate : 44.1 kHz / 22.05 kHz
    Frame rate : 21.533 FPS (1024 SPF)
    Compression mode : Lossy
    Stream size : 49.6 MiB (1%)
    Title : Chinese 2.0
    Language : Chinese
    Default : No
    Forced : No



    wrote:










    Quote:




    Download: cornfile
    http://cornfile.com/o6g66pbbp30j
    Download: mekafile
    http://www.mekafile.com/dl.php?f=fZdf51bDMszr

  2. #2
    Member
    Join Date
    Jun 2014
    Posts
    86
    Thanks
    0
    Thanked 0 Times in 0 Posts
    ขอบคุณครับ

+ Reply to Thread

Thread Information

Users Browsing this Thread

There are currently 1 users browsing this thread. (0 members and 1 guests)

     

Posting Permissions

  • You may not post new threads
  • You may not post replies
  • You may not post attachments
  • You may not edit your posts