เมื่อตัวเลขของเด็กประถม

กลายเป็นมหาวิบัติสู่วันสิ้นโลกที่ไม่มีใครคาดถึง


&

2160p.BluRay.REMUX.HEVC.DTS-HD.MA.TrueHD.7.1.Atmos







Quote:





นักแสดงรางวัลออสการ์ นิโคลัส เคจ (National Treasure: Book of Secrets, Leaving Las Vegas) เข้ามารับบทนำใน Knowing ภาพยนตร์แอ็คชั่น-ทริลเลอร์ที่พูดถึงหายนะ ที่แผ่ตัวครอบคลุมไปทั้งโลก โดยเป็นเรื่องของศาสตราจารย์คนหนึ่ง ที่ได้รับรู้ถึงคำทำนายเกี่ยวกับอนาคตอันน่าสะพรึงกล ัว และเขาก็ตัดสินใจที่จะออกไปเพื่อยับยั้งไม่ให้มันเกิ ดขึ้น

โรส เบิร์น (Damages, Troy) แชนด์เลอร์ แคนเตอร์บิวรี่ย์ (The Curious Case of Benjamin Button, Repossession Mambo) และ ลาร่า โรบินสัน (Saved) ร่วมแสดงในหนังของผู้กำกับ อเล็ค โปรยาส (I, Robot) ที่พูดถึงความพยายามของพ่อในการช่วยลูกของเขา...และโ ลกใบนี้

ในปี 1959 ณ.โรงเรียนประธมเปิดใหม่แห่งหนึ่ง นักเรียนทุกคนได้ถูกมอบหมายให้วาดภาพอะไรก็ได้ ที่พวกเขาคิดว่าจะเกิดขึ้นในอนาคต ซึ่งทั้งหมดก็จะถูกใส่เอาไว้ในแค๊ปซูลเวลา และฝังเอาไว้เป็นเวลา 50 ปี อย่างไรก็ตาม ก็มีเด็กหญิงปริศนาคนหนึ่งได้เขียนตัวเลขมากมายที่ไม ่มีความหมายบนกระดาษ ซึ่งเธอได้ยินมาจากเสียงกระซิบจากกลุ่มคนที่ไม่มีใคร มองเห็น

ครึ่งศตวรรษต่อมา นักเรียนในยุคปัจจุบันก็ต่างได้รับสิ่งของที่อยู่ในแ ค๊ปซูลเวลา ซึ่งกระดาษใบนั้นก็ตกไปอยู่ในมือของ คาเล็บ (แชนด์เลอร์ แคนเตอร์บิวรี่ย์) แต่ก็เป็น จอห์น (นิโคลัส เคจ) พ่อของ คาเล็บ และเป็นศาสตราจารย์ในด้านดาราศาสตร์-ฟิสิกส์ ที่ได้ค้นพบสิ่งที่ซ่อนอยู่ในตัวเลข มันคือข้อความลับที่ได้ทำนายวันเวลาและจำนวนผู้เสียช ีวิตในเหตุการณ์หายนะที่เกิดขึ้นในรอบ 50 ปีอย่างแม่นยำ เมื่อเขายิ่งสืบค้นลงไปในเรื่องราวที่ลี้ลับนี้มากเท ่าไร จอห์น ก็รู้ว่ามันได้ทำนายหายนะใหญ่อีกสามครั้งที่กำลังจะเ กิดขึ้นในไม่ช้า ซึ่งเหตุการณ์สุดท้ายนั้นก็อาจหมายถึงจุดจบของโลกใบน ี้เลยทีเดียว

ความพยายามของ จอห์น ในการเตือนผู้มีอำนาจในการป้องการมหันตภัยถูกเพิกเฉย อย่างไม่ใยดี และเขาก็ยิ่งกลัวขึ้นเมื่อค้นพบว่า คาเล็บ อาจจะเกี่ยวข้องกับปริศนาชิ้นนี้ ด้วยความช่วยเหลือของ ไดอาน่า (โรส เบิร์น) และ แอ๊บบี้ (ลาร่า โรบินสัน) ผู้ซึ่งเป็นลูกสาวและหลานสาวของเด็กหญิงที่เขียนคำทำ นายนี้ไว้ จอห์น ต้องเร่งมือแข่งกับเวลาในการ้องกันไม่ให้เกิดมหันตภั ยสุดท้ายที่จะทำลายล้างโลกใบนี้!!!





Quote:





Format : Matroska
Format version : Version 2

File size : 42.4 GiB
Duration : 2 h 1 min

Overall bit rate mode : Variable
Overall bit rate : 50.0 Mb/s

Video
ID : 1
Format : HEVC
Format/Info : High Efficiency Video Coding
Commercial name : HDR10
Format profile : Main [email protected]@High
Codec ID : V_MPEGH/ISO/HEVC
Duration : 2 h 1 min
Width : 3 840 pixels
Height : 2 160 pixels
Display aspect ratio : 16:9
Frame rate mode : Constant
Frame rate : 23.976 (24000/1001) FPS
Color space : YUV
Chroma subsampling : 4:2:0 (Type 2)
Bit depth : 10 bits
Title : [email protected]Prawit9730
Default : Yes
Forced : No

Color range : Limited
Color primaries : BT.2020
Transfer characteristics : PQ
Matrix coefficients : BT.2020 non-constant

Mastering display color pri : BT.709
Mastering display luminance : min: 0.0050 cd/m2, max: 1000 cd/m2
Maximum Content Light Level : 1000 cd/m2
Maximum Frame-Average Light : 985 cd/m2

Audio #1
ID : 2
Format : TrueHD
Format profile : TrueHD+Atmos / TrueHD
Codec ID : A_TRUEHD
Bit rate mode : Variable
Maximum bit rate : 8 085 kb/s
Channel(s) : Object Based / 8 channels
Channel positions : Object Based / Front: L C R, Side: L R, Back: L R, LFE
Sampling rate : / 48.0 kHz
Frame rate : 1 200.000 FPS (40 SPF)
Compression mode : Lossless
Delay relative to video : 1 ms

Title : English TrueHD.7.1.Atmos
Language : English
Default : Yes
Forced : No

Audio #2
ID : 3
Format : DTS
Format/Info : Digital Theater Systems
Format profile : MA / Core
Muxing mode : Header stripping
Codec ID : A_DTS
Duration : 2 h 1 min
Bit rate mode : Variable / Constant
Bit rate : Unknown / 1 509 kb/s
Channel(s) : 8 channels / 6 channels
Channel positions : Front: L C R, Side: L R, Back: L R, LFE / Front: L C R, Side: L R, LFE
Sampling rate : 48.0 kHz
Frame rate : 93.750 FPS (512 SPF)
Bit depth : 24 bits
Compression mode : Lossless / Lossy

Title : English DTS-HD.MA.7.1
Language : English
Default : No
Forced : No

Audio #3
ID : 4
Format : AC-3
Format/Info : Audio Coding 3
Muxing mode : Header stripping
Codec ID : A_AC3
Duration : 2 h 1 min
Bit rate mode : Constant
Bit rate : 448 kb/s
Channel(s) : 6 channels
Channel positions : Front: L C R, Side: L R, LFE
Sampling rate : 48.0 kHz
Frame rate : 31.250 FPS (1536 SPF)
Bit depth : 16 bits
Compression mode : Lossy
Delay relative to video : 1 ms
Stream size : 389 MiB (1%)

Title : English 5.1
Language : English
Service kind : Complete Main
Default : No
Forced : No

Audio #4
ID : 6
Format : AC-3
Format/Info : Audio Coding 3
Muxing mode : Header stripping
Codec ID : A_AC3
Duration : 2 h 1 min
Bit rate mode : Constant
Bit rate : 256 kb/s
Channel(s) : 6 channels
Channel positions : Front: L C R, Side: L R, LFE
Sampling rate : 44.1 kHz
Frame rate : 28.711 FPS (1536 SPF)
Bit depth : 16 bits
Compression mode : Lossy
Stream size : 222 MiB (1%)

Title : Thai From Master 5.1
Language : Thai
Service kind : Complete Main
Default : No
Forced : No

Text #1
ID : 5
Format : PGS
Muxing mode : zlib
Codec ID : S_HDMV/PGS
Codec ID/Info : Picture based subtitle format used on BDs/HD-DVDs

Title : English-PGS
Language : English
Default : Yes
Forced : No

Text #2
ID : 7
Format : VobSub
Muxing mode : zlib
Codec ID : S_VOBSUB
Codec ID/Info : Picture based subtitle format used on DVDs

Title : Thai From DVD Master
Language : Thai
Default : No
Forced : No





Quote:





SS จับจากตัวไฟล์!!!


























Download: cornfile
http://cornfile.com/7mxllpahuwis
Download: mekafile
http://www.mekafile.com/dl.php?f=VEb2b2bDMNjw