+ Reply to Thread
Results 1 to 7 of 7
  1. #1
    Administrators Duckload.us's Avatar
    Join Date
    Dec 2010
    Posts
    96,895
    Thanks
    9
    Thanked 98,338 Times in 47,307 Posts

    Cool []-[Ѻ/ѧ Netflix] Lost in Space (2018) - š شѡ 1 (10 ͹) -WEB-DL.H.264.DD5.1.1080p. [From HD-TV]-[Soundtrack ]




    Lost in Space



    Rating: 7.2/10 Year: 2018 Genres: Sci-Fi Runtime: 60 min Language: n/A Director: n/A Writers: Irwin Allen / Vivian Lee / Matt Sazama Cast: Molly Parker / Toby Stephens / Maxwell JenkinsPlot:

    Set 30 years in the future, colonization in space is now a reality, and the Robinson family is among those tested and selected to make a new life for themselves in a better world. But when the new colonists find themselves abruptly torn off course en route to their new home they must forge new alliances and work together to survive in a dangerous alien environment, light-years from their original destination. Stranded along with the Robinsons are two outsiders who find themselves thrown together by circumstance and a mutual knack for deception. The charismatic Dr. Smith is a master manipulator with an inscrutable end game. And the roguish, but charming Don West is a highly-skilled, blue collar contractor, who had no intention of joining the colony, let alone crash landing on a lost planet.









    § ENG Ѻ (PGS)/ENG

    ѹ ¹çѧ ͷ͹Ѻ״ ҤͺúԹѹ˹ ѹѡ


    General
    Format : Matroska
    Format version : Version 4 / Version 2
    File size : 1.78 GiB
    Duration : 1 h 3 min
    Overall bit rate mode : Variable
    Overall bit rate : 4 001 kb/s
    Encoded date : UTC 2018-04-13 09:50:47
    Writing application : mkvmerge v21.0.0 ( Tardigrades Will Inherit The Earth ) 64-bit
    Writing library : libebml v1.3.5 + libmatroska v1.4.8

    Video
    ID : 1
    Format : AVC
    Format/Info : Advanced Video Codec
    Format profile : [email protected]
    Format settings : CABAC / 3 Ref Frames
    Format settings, CABAC : Yes
    Format settings, RefFrames : 3 frames
    Codec ID : V_MPEG4/ISO/AVC
    Duration : 1 h 3 min
    Bit rate mode : Variable
    Bit rate : 3 650 kb/s
    Maximum bit rate : 5 475 kb/s
    Width : 1 920 pixels
    Height : 1 080 pixels
    Display aspect ratio : 16:9
    Frame rate mode : Constant
    Frame rate : 23.976 (24000/1001) FPS
    Color space : YUV
    Chroma subsampling : 4:2:0
    Bit depth : 8 bits
    Scan type : Progressive
    Bits/(Pixel*Frame) : 0.073
    Stream size : 1.57 GiB (88%)
    Writing library : x264 core 148 r2715 7e75228
    Encoding settings : cabac=1 / ref=3 / deblock=1:0:0 / analyse=0x1:0x111 / me=umh / subme=10 / psy=1 / psy_rd=1.00:0.00 / mixed_ref=1 / me_range=24 / chroma_me=1 / trellis=2 / 8x8dct=0 / cqm=0 / deadzone=21,11 / fast_pskip=1 / chroma_qp_offset=-2 / threads=8 / lookahead_threads=1 / sliced_threads=0 / nr=0 / decimate=1 / interlaced=0 / bluray_compat=0 / stitchable=1 / constrained_intra=0 / bframes=2 / b_pyramid=0 / b_adapt=2 / b_bias=0 / direct=3 / weightb=1 / open_gop=0 / weightp=2 / keyint=48 / keyint_min=25 / scenecut=0 / intra_refresh=0 / rc_lookahead=48 / rc=2pass / mbtree=1 / bitrate=3650 / ratetol=1.0 / qcomp=0.50 / qpmin=6 / qpmax=51 / qpstep=4 / cplxblur=20.0 / qblur=0.5 / vbv_maxrate=5475 / vbv_bufsize=7300 / nal_hrd=vbr / filler=0 / ip_ratio=1.40 / aq=1:1.00
    Default : Yes
    Forced : No

    Audio
    ID : 2
    Format : E-AC-3
    Format/Info : Enhanced Audio Coding 3
    Format profile : E-AC-3+Atmos / E-AC-3
    Format settings, Endianness : Big
    Codec ID : A_EAC3
    Duration : 1 h 2 min
    Bit rate mode : Constant
    Bit rate : 448 kb/s
    Channel(s) : 15 objects / 6 channels
    Channel positions : 15 objects / Front: L C R, Side: L R, LFE
    Sampling rate : 48.0 kHz
    Frame rate : 187.500 FPS (256 SPF)
    Compression mode : Lossy
    Stream size : 201 MiB (11%)
    Language : English
    Service kind : Complete Main
    Default : Yes
    Forced : No

    Text #1
    ID : 3
    Format : UTF-8
    Codec ID : S_TEXT/UTF8
    Codec ID/Info : UTF-8 Plain Text
    Duration : 1 h 0 min
    Bit rate : 52 b/s
    Count of elements : 805
    Stream size : 23.3 KiB (0%)
    Language : English
    Default : No
    Forced : No

    Text #2
    ID : 4
    Format : PGS
    Muxing mode : zlib
    Codec ID : S_HDMV/PGS
    Codec ID/Info : Picture based subtitle format used on BDs/HD-DVDs
    Duration : 1 h 2 min
    Bit rate : 42.5 kb/s
    Count of elements : 1332
    Stream size : 19.0 MiB (1%)
    Language : Thai
    Default : Yes
    Forced : No









    Download: filecondo
    1
    http://www.filecondo.com/dl.php?f=T333d41F80yy
    2
    http://www.filecondo.com/dl.php?f=P0fa4a1F80zv
    3
    http://www.filecondo.com/dl.php?f=g9be661F80Ap
    4
    http://www.filecondo.com/dl.php?f=ka7f9c1F80By
    5
    http://www.filecondo.com/dl.php?f=Mf4b671F80Cl
    6
    http://www.filecondo.com/dl.php?f=S653951F80Ds
    7
    http://www.filecondo.com/dl.php?f=j5d6081F80Ej
    8
    http://www.filecondo.com/dl.php?f=369d821F80Ff
    9
    http://www.filecondo.com/dl.php?f=M7f0a11F80Gd
    10
    http://www.filecondo.com/dl.php?f=w1e90e1F80I9

    Download: cornfile
    Lost in Space (2018) S01E01.1080p.TH.EN.NF.WEB-DL.5.1-HiDe80.mkv - 1.8 GB
    Lost in Space (2018) S01E02.1080p.TH.EN.NF.WEB-DL.5.1-HiDe80.mkv - 1.9 GB
    Lost in Space (2018) S01E03.1080p.TH.EN.NF.WEB-DL.5.1-HiDe80.mkv - 1.1 GB
    Lost in Space (2018) S01E04.1080p.TH.EN.NF.WEB-DL.5.1-HiDe80.mkv - 1.9 GB
    Lost in Space (2018) S01E05.1080p.TH.EN.NF.WEB-DL.5.1-HiDe80.mkv - 1.1 GB
    Lost in Space (2018) S01E06.1080p.TH.EN.NF.WEB-DL.5.1-HiDe80.mkv - 1.7 GB
    Lost in Space (2018) S01E07.1080p.TH.EN.NF.WEB-DL.5.1-HiDe80.mkv - 1.4 GB
    Lost in Space (2018) S01E08.1080p.TH.EN.NF.WEB-DL.5.1-HiDe80.mkv - 1.1 GB
    Lost in Space (2018) S01E09.1080p.TH.EN.NF.WEB-DL.5.1-HiDe80.mkv - 1.2 GB
    Lost in Space (2018) S01E10.1080p.TH.EN.NF.WEB-DL.5.1-HiDe80.mkv - 1.1 GB

    Download: mekafile
    1
    http://www.mekafile.com/dl.php?f=en4fd9bDVlxF
    2
    http://www.mekafile.com/dl.php?f=9G2359bDVmcj
    3
    http://www.mekafile.com/dl.php?f=gv3aafbDVyxl
    4
    http://www.mekafile.com/dl.php?f=wq580fbDVlYL
    5
    http://www.mekafile.com/dl.php?f=YI5a88bDVyE7
    6
    http://www.mekafile.com/dl.php?f=m10044bDVlEk
    7
    http://www.mekafile.com/dl.php?f=rs9a13bDVlKZ
    8
    http://www.mekafile.com/dl.php?f=ruaa25bDVyqG
    9
    http://www.mekafile.com/dl.php?f=k2a910bDVmQC
    10
    http://www.mekafile.com/dl.php?f=5j657dbDVyjU

  2. The Following 10 Users Say Thank You to Duckload.us For This Useful Post:

    amorn wichian (04-21-2018), apichartdear (04-17-2018), csoon (04-19-2018), gaszolineskywalker (04-21-2018), gozilla02 (04-16-2018), mettset (04-17-2018), NaiWan (04-16-2018), noi54 (04-17-2018), prasert.pp (04-18-2018), Wesker_TOT (04-17-2018)

  3. #2
    Senior Member
    Join Date
    Dec 2013
    Posts
    1,283
    Thanks
    3,220
    Thanked 0 Times in 0 Posts
    ͺسФѺ...

  4. #3
    Junior Member
    Join Date
    Apr 2018
    Posts
    4
    Thanks
    0
    Thanked 0 Times in 0 Posts
    ҵʹѺ ͺسѺ

  5. #4
    Member
    Join Date
    May 2012
    Posts
    59
    Thanks
    2
    Thanked 0 Times in 0 Posts
    §

  6. #5
    Senior Member gozilla02's Avatar
    Join Date
    Jul 2012
    Posts
    197
    Thanks
    73
    Thanked 1 Time in 1 Post
    5 ͹ʹءҡѺ
    http://rabbitfileloveav.blogspot.com/ Ŵ˹ѧ AV 18+ش Ѿവءѹ շء 1080P Cornfile 10000 ͧ

  7. #6
    Senior Member
    Join Date
    Jun 2014
    Posts
    372
    Thanks
    0
    Thanked 0 Times in 0 Posts
    ͺسѺ

  8. #7
    Senior Member
    Join Date
    Oct 2012
    Posts
    442
    Thanks
    1,324
    Thanked 0 Times in 0 Posts
    ͺسҡѺ

Thread Information

Users Browsing this Thread

There are currently 1 users browsing this thread. (0 members and 1 guests)

     

Posting Permissions

  • You may not post new threads
  • You may not post replies
  • You may not post attachments
  • You may not edit your posts