+ Reply to Thread
Results 1 to 3 of 3
  1. #1
    Administrators Duckload.us's Avatar
    Join Date
    Dec 2010
    Posts
    93,488
    Thanks
    9
    Thanked 95,915 Times in 46,154 Posts

    Question [ฝรั่ง]-ใหม่!!+[ภาพชัด ]Rampage (2018) : แรมเพจ ใหญ่ชนยักษ์ • [720p] • [* HDCAM.X264.AC3.THR2.0 [email protected] *] [พากย์ไทยโรง 2.0 + เสียงอังกฤษ 2.0]





    จากเกมตู้สุดคลาสสิคสู่ภาพยนตร์อภิมหาการทำลายล้าง
    Dwayne “The Rock” Johnson ที่ต้องประจันหน้าท้าดวลกับเหล่าสัตว์กลายพันธุ์ขนาด ยักษ์!! พร้อมความหวังที่จะ #ล้างคำสาปหนังที่สร้างจากวิดีโอเกม!
    &

    ••• [email protected] •••
    พากย์ไทยโรง 2.0 + เสียงอังกฤษ 2.0




    wrote:

    Rampage ภาพยนตร์แอ็คชั่นผจญภัย ""Rampage"" คือเรื่องราวของนักวานรวิทยา ดาวิส โอโคเย (จอห์นสัน) ชายผู้หลบเลี่ยงห่างไกลจากผู้คน เขามีสายสัมพันธ์อันแน่นหนาที่ไม่มีวันสั่นคลอนกับจอ ร์จ กอริล่าหลังเงินที่เฉลียวฉลาดยิ่งกว่ากอริลล่าทั่วไป ที่เขาเป็นผู้เลี้ยงดูมาตั้งแต่มันเกิด แต่แล้วยีนส์แห่งความโหดร้ายในร่างมันได้เกิดการกลาย พันธุ์ และเปลี่ยนกอริลล่าแสนสุภาพตัวนี้ให้กลายเป็นสิ่งมีช ีวิตที่โหดร้ายตัวใหญ่ยักษ์ และทุกสิ่งเลวร้ายยิ่งขึ้น เมื่อได้มีการค้นพบว่า แท้จริงแล้วยังมีสัตว์อื่นอีกมายมายที่เกิดการกลายพั นธุ์เช่นเดียวกัน พวกมันกลายเป็นนักล่าที่อยู่เหนือทุกขีวิตและมุ่งหน้ าสู่อเมริกาเหนือ ทำลายทุกสิ่งที่ขวางทางของพวกมัน กลุ่มของโอโคเยและนักพันธุวิศวกรรมผู้ไม่น่าเชื่อถือ ต้องปกป้องแอนติโดส ต่อสู้กับอุปสรรคขวากหนามและปัญหามากมายที่มาเยือนอย ่างไม่ซ้ำ ไม่เพียงเพื่อหยุดยั้งจุดจบของโลก ทว่าเพื่อช่วยสิ่งมีชีวิตที่น่าหวาดหวั่น ที่ครั้งหนึ่ง เคยเป็นเพื่อนของเขาเอง

    ""Rampage"" ยังประกอบไปด้วยนักแสดงผู้เข้าชิงออสการ์ นาโอมิ แฮร์ริส, มาลีน เอเคอร์แมน, เจค เลซี่, โจ แมนเกนเนโล่, เจฟฟรีย์ ดีน มอร์แกน ร่วมด้วย พีเจ เบิร์น, มาร์ลีย์ เชลตัน, บรีแอนน์ ฮิลล์, แจ็ค เควด, แมตต์ เจรัลด์ กำกับโดย เพย์ตันกำกับ จากบทโดยไรอัน แอนเกิล, คาร์ลตัน คิวส์, ไรอัน เจ. คอนดัล และ อดัม ซิสติคีล เรื่องโดย ไรอัน แอนเกิล ดัดแปลงจาดวีดีโอเกม Rampage

    ""Rampage"" อำนวยการสร้างโดย โบ ฟลินน์, จอห์น ริคการ์ด, แบรด เพย์ตัน และ ไฮแรม การ์เซีย เป็นการร่วมงานกันเป็นครั้งที่สามระหว่าง จอห์นสัน, เพย์ตัน และฟลินน์ หลังจากภาพยนตร์บล็อคบัสเตอร์เรื่องล่าสุดอย่าง ""San Andreas"" กำกับการแสดงโดย แบรด เพย์ตัน



    wrote:

    Format : Matroska
    File size : 3.14 GiB
    Duration : 1 h 39 min
    Overall bit rate : 4 510 kb/s

    Movie name : Rampage [email protected]

    Video
    ID : 1
    Format : AVC
    Format/Info : Advanced Video Codec
    Format profile : [email protected]
    Format settings : 1 Ref Frames
    Format settings, CABAC : No
    Format settings, ReFrames : 1 frame
    Codec ID : V_MPEG4/ISO/AVC
    Duration : 1 h 39 min
    Bit rate : 4 123 kb/s
    Width : 1 280 pixels
    Height : 720 pixels
    Display aspect ratio : 16:9
    Frame rate mode : Constant
    Frame rate : 29.970 FPS
    Original frame rate : 29.000 FPS
    Color space : YUV
    Chroma subsampling : 4:2:0
    Bit depth : 8 bits
    Scan type : Progressive
    Bits/(Pixel*Frame) : 0.149
    Stream size : 2.87 GiB (91%)
    Title : Rampage [email protected]
    Language : English
    Default : Yes
    Forced : No

    Audio #1
    ID : 2
    Format : AC-3
    Format/Info : Audio Coding 3
    Codec ID : A_AC3
    Duration : 1 h 39 min
    Bit rate mode : Constant
    Bit rate : 192 kb/s
    Channel(s) : 2 channels
    Channel positions : Front: L R
    Sampling rate : 48.0 kHz
    Frame rate : 31.250 FPS (1536 SPF)
    Bit depth : 16 bits
    Compression mode : Lossy
    Delay relative to video : -154 ms
    Stream size : 137 MiB (4%)
    Title : THR 2.0 Modified By ~Mr.Captain~
    Language : Thai
    Service kind : Complete Main
    Default : Yes
    Forced : Yes

    Audio #2
    ID : 3
    Format : AC-3
    Format/Info : Audio Coding 3
    Codec ID : A_AC3
    Duration : 1 h 39 min
    Bit rate mode : Constant
    Bit rate : 192 kb/s
    Channel(s) : 2 channels
    Channel positions : Front: L R
    Sampling rate : 48.0 kHz
    Frame rate : 31.250 FPS (1536 SPF)
    Bit depth : 16 bits
    Compression mode : Lossy
    Delay relative to video : -154 ms
    Stream size : 137 MiB (4%)
    Title : English 2.0
    Language : English
    Service kind : Complete Main
    Default : No
    Forced : No



    wrote:











    Quote:




    Download: cornfile
    http://cornfile.com/h3utmngvbj8a
    Download: mekafile
    http://www.mekafile.com/dl.php?f=IO5296bDVmYb

  2. The Following 2 Users Say Thank You to Duckload.us For This Useful Post:

    prasert.pp (04-18-2018), Wesker_TOT (04-17-2018)

  3. #2
    Senior Member
    Join Date
    Dec 2013
    Posts
    1,210
    Thanks
    3,128
    Thanked 0 Times in 0 Posts
    ขอบคุณนะครับ...

  4. #3
    Senior Member
    Join Date
    Oct 2013
    Posts
    1,198
    Thanks
    0
    Thanked 0 Times in 0 Posts
    ขอบคุณครับ

+ Reply to Thread

Thread Information

Users Browsing this Thread

There are currently 1 users browsing this thread. (0 members and 1 guests)

     

Posting Permissions

  • You may not post new threads
  • You may not post replies
  • You may not post attachments
  • You may not edit your posts