+ Reply to Thread
Results 1 to 3 of 3
  1. #1
    Administrators Duckload.us's Avatar
    Join Date
    Dec 2010
    Posts
    96,895
    Thanks
    9
    Thanked 98,338 Times in 47,307 Posts

    Cool []-The Walking Dead Season 8 Episode 16 Finale : Wrath - Soundtrack + ҡ Sub Thai FOX 2 -Encode.H.264.1080i. [From HD-TV]-[ҡ]

    The Walking Dead Season 8 Episode 16 Finale : Wrath - Soundtrack + ҡ Sub Thai FOX 2



    The communities join forces in the last stand against the Saviors as all-out war unfolds.

    Trailer


    Screenshot


    General
    Unique ID : 130516789130070109817474540329496016362 (0x62309E86B709BCCA928CA9AA7178F5EA)
    Complete name : H:TWD S08EP16.mkv
    Format : Matroska
    Format version : Version 4 / Version 2
    File size : 1.49 GiB
    Duration : 46 min 14 s
    Overall bit rate : 4 602 kb/s
    Encoded date : UTC 2018-04-16 07:22:38
    Writing application : mkvmerge v22.0.0 ( At The End Of The World ) 64-bit
    Writing library : libebml v1.3.5 + libmatroska v1.4.8

    Video
    ID : 1
    Format : AVC
    Format/Info : Advanced Video Codec
    Format profile : [email protected]
    Format settings : CABAC / 4 Ref Frames
    Format settings, CABAC : Yes
    Format settings, RefFrames : 4 frames
    Codec ID : V_MPEG4/ISO/AVC
    Duration : 46 min 14 s
    Bit rate : 3 963 kb/s
    Width : 1 920 pixels
    Height : 1 080 pixels
    Display aspect ratio : 16:9
    Frame rate mode : Constant
    Frame rate : 50.000 FPS
    Standard : PAL
    Color space : YUV
    Chroma subsampling : 4:2:0
    Bit depth : 8 bits
    Scan type : Progressive
    Bits/(Pixel*Frame) : 0.038
    Stream size : 1.28 GiB (86%)
    Language : English
    Default : Yes
    Forced : No
    Color range : Limited
    Color primaries : BT.709
    Transfer characteristics : BT.709
    Matrix coefficients : BT.709

    Audio #1
    ID : 2
    Format : AAC
    Format/Info : Advanced Audio Codec
    Format profile : LC
    Codec ID : A_AAC-2
    Duration : 46 min 14 s
    Bit rate : 317 kb/s
    Channel(s) : 2 channels
    Channel positions : Front: L R
    Sampling rate : 48.0 kHz
    Frame rate : 46.875 FPS (1024 SPF)
    Compression mode : Lossy
    Stream size : 105 MiB (7%)
    Title : English
    Language : English
    Default : Yes
    Forced : No

    Audio #2
    ID : 3
    Format : AAC
    Format/Info : Advanced Audio Codec
    Format profile : LC
    Codec ID : A_AAC-2
    Duration : 46 min 14 s
    Bit rate : 317 kb/s
    Channel(s) : 2 channels
    Channel positions : Front: L R
    Sampling rate : 48.0 kHz
    Frame rate : 46.875 FPS (1024 SPF)
    Compression mode : Lossy
    Stream size : 105 MiB (7%)
    Title : Thai
    Language : Thai
    Default : No
    Forced : No



    Download: filecondo
    http://www.filecondo.com/dl.php?f=36ad4d1F83Ww
    Download: cornfile
    http://cornfile.com/z9s0l4mgb28x
    Download: mekafile
    http://www.mekafile.com/dl.php?f=Vd7179bDVyL7

  2. The Following 2 Users Say Thank You to Duckload.us For This Useful Post:

    csoon (05-08-2018), Wesker_TOT (04-18-2018)

  3. #2
    Senior Member
    Join Date
    Dec 2013
    Posts
    1,283
    Thanks
    3,220
    Thanked 0 Times in 0 Posts
    ͺسѺ...

  4. #3
    Senior Member
    Join Date
    Jul 2012
    Posts
    5,757
    Thanks
    0
    Thanked 0 Times in 0 Posts
    ͺسҡ

Thread Information

Users Browsing this Thread

There are currently 1 users browsing this thread. (0 members and 1 guests)

     

Posting Permissions

  • You may not post new threads
  • You may not post replies
  • You may not post attachments
  • You may not edit your posts