+ Reply to Thread
Results 1 to 2 of 2
  1. #1
    Administrators Duckload.us's Avatar
    Join Date
    Dec 2010
    Posts
    88,773
    Thanks
    9
    Thanked 92,475 Times in 44,456 Posts

    Lightbulb [ญี่ปุ่น]-Maoyuu Maou Yuusha (จอมมารผู้กล้า จับคู่กู้โลก) ตอนที่ 1-12 จบ พากย์ไทย-HDTV.H.264.1080p. [rip from Master]-[พากย์ไทย]

    Maoyuu Maou Yuusha



    Rating: 7/10 Year: 2013 Genres: Animation / Fantasy / Romance Runtime: n/A Language: Japanese Director: n/A Writers: n/A Cast: Jun Fukuyama / Ami Koshimizu / Chiwa Saitรด Plot:

    After a long and treacherous journey, our Hero finally arrives at the Dark Lady's castle only to find himself being asked for help. The Hero explains how the war that the demons have brought upon the humans have killed thousands and put more in misery. The queen of demons however argues that this war has made the human society band together as one and showed empirical evidence how it has increased population, increased production, boosted economy and improved society overall. Furthermore, she explains to the Hero that ending this war will result in a civil war that will produce more bloodshed than there ever was. The Hero, convinced that the only way to bring peace, relatively speaking, is to join forces with the Dark Lady, agrees to help with her plans! (Source: MU)













    Maoyuu Maou Yuusha / จอมมารผู้กล้า จับคู่กู้โลก ตอนที่ 1-12 จบ พากย์ไทย

    เรื่องย่อ

    สงครามที่เกิดขึ้นระหว่างมนุษย์และปีศาจดำเนินต่อเนื ่องมายาวนาน จนมาถึงยุค ของจอมมารรุ่นที่ 43 เป็นผู้นำทัพปีศาจ และหน้าที่ของผู้กล้าตัวแทนของมนุษย์ที่แข็งแกร่งที่ สุด คือการกำจัดจอมมาร ลงเพื่อความสงบสุขของโลกมนุษย์ เกริ่นเรื่องแบบพื้นๆที่เห็นได้ทั่วไป แต่จุดเปลี่ยนก็เกิดขึ้นในตอนแรกเลย เมื่อจอมมารคนใหม่ปรากฎตัวออกมาเป็นหญิงสาวเรียบร้อย หน้าอกตูม พูดเจรจากับ ผู้กล้าอย่างอ่อนโยน ด้วยแนวคิดอยู่ร่วมกันอย่างสันติ มันทำให้ผู้กล้าตาสว่าง และทำพันธสัญญาเป็นของกันและกัน ระหว่างจอมมารกับผู้กล้า เพื่อหาทางให้มนุษย์และปีศาจอยู่ร่วมกันได้อย่างสันต ิสุข

    -------
    *** การ์ตูนอนิเมะเบาๆครับ เห็นว่าสนุกดีเลยอยากจะเอามาฝากเพื่อนๆที่ยังไม่ได้ด ู ให้ได้ดูกันนะครับ
    General
    Complete name : \MacHomeDownloadsMaoyuu Maou YuushaMaoyuu Maou Yuusha มาโอยุ จอมมารผู้กล้าจับคู่กู้โลก ตอนที่ 01 พากย์ไทย.mp4
    Format : MPEG-4
    Format profile : Base Media / Version 2
    Codec ID : mp42 (isom/mp42)
    File size : 419 MiB
    Duration : 23 min 41 s
    Overall bit rate mode : Variable
    Overall bit rate : 2 475 kb/s
    Encoded date : UTC 2018-04-22 15:56:36
    Tagged date : UTC 2018-04-22 15:56:36
    gsst : 0
    gstd : 1421060

    Video
    ID : 1
    Format : AVC
    Format/Info : Advanced Video Codec
    Format profile : [email protected]
    Format settings, CABAC : Yes
    Format settings, RefFrames : 1 frame
    Codec ID : avc1
    Codec ID/Info : Advanced Video Coding
    Duration : 23 min 41 s
    Bit rate : 2 281 kb/s
    Maximum bit rate : 15.6 Mb/s
    Width : 1 920 pixels
    Height : 1 080 pixels
    Display aspect ratio : 16:9
    Frame rate mode : Constant
    Frame rate : 23.976 (24000/1001) FPS
    Color space : YUV
    Chroma subsampling : 4:2:0
    Bit depth : 8 bits
    Scan type : Progressive
    Bits/(Pixel*Frame) : 0.046
    Stream size : 386 MiB (92%)
    Tagged date : UTC 2018-04-22 16:02:33
    Color range : Limited
    Color primaries : BT.709
    Transfer characteristics : BT.709
    Matrix coefficients : BT.709

    Audio
    ID : 2
    Format : AAC
    Format/Info : Advanced Audio Codec
    Format profile : LC
    Codec ID : 40
    Duration : 23 min 41 s
    Bit rate mode : Variable
    Bit rate : 192 kb/s
    Maximum bit rate : 202 kb/s
    Channel(s) : 2 channels
    Channel positions : Front: L R
    Sampling rate : 44.1 kHz
    Frame rate : 43.066 FPS (1024 SPF)
    Compression mode : Lossy
    Stream size : 32.5 MiB (8%)
    Title : IsoMedia File Produced by Google, 5-11-2011
    Language : Thai
    Encoded date : UTC 2018-04-22 15:59:20
    Tagged date : UTC 2018-04-22 16:02:33


    1
    http://www.filecondo.com/dl.php?f=t547331Fgmey
    2
    http://www.filecondo.com/dl.php?f=4fbe361Fgmfu
    3
    http://www.filecondo.com/dl.php?f=Xf935e1Fgmgr
    4
    http://www.filecondo.com/dl.php?f=wb3c1a1Fgmhp
    5
    http://www.filecondo.com/dl.php?f=G117861Fgmip
    6
    http://www.filecondo.com/dl.php?f=o6a2bc1Fgmjr
    7
    http://www.filecondo.com/dl.php?f=m6c72d1Fgmkj
    8
    http://www.filecondo.com/dl.php?f=Wa7fbf1Fgmli
    9
    http://www.filecondo.com/dl.php?f=C7d16d1Fgmmg
    10
    http://www.filecondo.com/dl.php?f=Me52a41Fgmni
    11
    http://www.filecondo.com/dl.php?f=mc6d581Fgmoi
    12
    http://www.filecondo.com/dl.php?f=U90f461Fgmpa

  2. The Following User Says Thank You to Duckload.us For This Useful Post:

    n_ton (05-17-2018)

  3. #2
    Senior Member
    Join Date
    Mar 2013
    Posts
    1,208
    Thanks
    1,228
    Thanked 0 Times in 0 Posts
    ขอบคุณครับ

+ Reply to Thread

Thread Information

Users Browsing this Thread

There are currently 1 users browsing this thread. (0 members and 1 guests)

     

Posting Permissions

  • You may not post new threads
  • You may not post replies
  • You may not post attachments
  • You may not edit your posts