+ Reply to Thread
Results 1 to 1 of 1
  1. #1
    Administrators Duckload.us's Avatar
    Join Date
    Dec 2010
    Posts
    88,773
    Thanks
    9
    Thanked 92,477 Times in 44,457 Posts

    Lightbulb Full match Liverpool vs Brighton -HDTV.Other.720p.



    General
    Complete name : C:UserstodsakanDesktoplivLiverpool vs Brighton 1.MP4
    Format : MPEG-4
    Format profile : Base Media
    Codec ID : isom
    File size : 843 MiB
    Duration : 49mn 48s
    Overall bit rate : 2 365 Kbps

    Video
    ID : 1
    Format : AVC
    Format/Info : Advanced Video Codec
    Format profile : [email protected]
    Format settings, CABAC : Yes
    Format settings, ReFrames : 4 frames
    Format settings, GOP : M=1, N=90
    Codec ID : avc1
    Codec ID/Info : Advanced Video Coding
    Duration : 49mn 48s
    Duration_FirstFrame : 46ms
    Bit rate : 2 164 Kbps
    Width : 1 280 pixels
    Height : 720 pixels
    Display aspect ratio : 16:9
    Frame rate mode : Constant
    Frame rate : 30.000 fps
    Color space : YUV
    Chroma subsampling : 4:2:0
    Bit depth : 8 bits
    Scan type : Progressive
    Bits/(Pixel*Frame) : 0.078
    Stream size : 769 MiB (91%)
    Writing library : x264 core 152 r2851 ba24899
    Encoding settings : cabac=1 / ref=4 / deblock=1:2:2 / analyse=0x3:0x113 / me=hex / subme=2 / psy=1 / psy_rd=1.00:0.00 / mixed_ref=1 / me_range=16 / chroma_me=1 / trellis=0 / 8x8dct=1 / cqm=0 / deadzone=21,11 / fast_pskip=1 / chroma_qp_offset=0 / threads=22 / lookahead_threads=5 / sliced_threads=0 / nr=0 / decimate=1 / interlaced=0 / bluray_compat=0 / constrained_intra=0 / bframes=0 / weightp=2 / keyint=90 / keyint_min=9 / scenecut=0 / intra_refresh=0 / rc_lookahead=40 / rc=abr / mbtree=1 / bitrate=2164 / ratetol=1.0 / qcomp=0.60 / qpmin=10 / qpmax=51 / qpstep=4 / ip_ratio=0.91 / aq=1:1.00
    Tagged date : UTC 2018-05-13 15:04:11

    Audio
    ID : 2
    Format : AAC
    Format/Info : Advanced Audio Codec
    Format profile : LC
    Codec ID : 40
    Duration : 49mn 48s
    Duration_LastFrame : -20ms
    Bit rate mode : Constant
    Bit rate : 204 Kbps
    Channel(s) : 2 channels
    Channel positions : Front: L R
    Sampling rate : 44.1 KHz
    Compression mode : Lossy
    Stream size : 72.7 MiB (9%)
    Tagged date : UTC 2018-05-13 15:04:11

    1
    http://www.filecondo.com/dl.php?f=Ve1e641Fica3
    2
    http://www.filecondo.com/dl.php?f=q6b2081Ficb1

  2. The Following User Says Thank You to Duckload.us For This Useful Post:

    zhad01 (05-16-2018)

Thread Information

Users Browsing this Thread

There are currently 1 users browsing this thread. (0 members and 1 guests)

     

Posting Permissions

  • You may not post new threads
  • You may not post replies
  • You may not post attachments
  • You may not edit your posts