+ Reply to Thread
Results 1 to 5 of 5
  1. #1
    Administrators Duckload.us's Avatar
    Join Date
    Dec 2010
    Posts
    93,491
    Thanks
    9
    Thanked 95,985 Times in 46,193 Posts

    Cool [ฝรั่ง]-[*ใหม่!!ซับไทยร้อนๆ จากดีวีดีมาสเตอร์*] Westworld (2016) Complete Season 1 (Finale: Episode 1-10) [1080p Bluray] [เสียงอังกฤษ DTS] [ซับไทยจาก DVD Master+อังกฤษ] [ซับ PGS, IDX, SRT คมบาดลึก]

    รู้หรือไม่!
    ซับไทยทั้งหมดนี้
    เป็นซับไทยมาสเตอร์จาก DVD Master ที่เพิ่งจำหน่ายในไทย
    นำมา OCR และแปลงเป็น PGS ใหม่
    ความคมชัดไม่ต้องพูดถึง บาดลึกแน่นอน!!!








    เรื่องย่อ

    Westworld สวนสนุกที่สร้างหุ่นยนต์เพื่อตอบสนองความต้องการของล ูกค้า ลูกค้าสามารถทำอะไรกับหุ่นยนต์ก็ได้ตามที่ใจอยากจะจิ นตนาการ แต่แล้ววันหนึ่งผู้สร้างหุ่นยนต์เกิดมีคิดว่าพวกมันย ังสมจริงไม่พอ เขาจึงใส่อัพเกรดเฟริม์แวร์ใหม่เข้าไป โดยที่เขาไม่รู้เลยว่า หุ่นยนต์เหล่านั้นเริ่มมีความคิดที่เปลี่ยนไป และต้องการล้างแค้นมนุษย์





    ข้อมูลหนัง

    General
    Unique ID : 319143613528418655786994191882615864348 (0xF018D2FDD10812D923AE802D204D3C1C)
    Complete name : Westworld.S01E05.1080p.BluRay.x264.DTS-jaideejung007.mkv
    Format : Matroska
    Format version : Version 4 / Version 2
    File size : 4.39 GiB
    Duration : 56 min 33 s
    Overall bit rate : 11.1 Mb/s
    Movie name : Westworld.S01E05.1080p.BluRay.x264.DTS-jaideejung007
    Encoded date : UTC 2018-05-04 08:45:58
    Writing application : mkvmerge v23.0.0 ( The Bride Said No ) 64-bit
    Writing library : libebml v1.3.6 + libmatroska v1.4.9

    Video
    ID : 1
    Format : AVC
    Format/Info : Advanced Video Codec
    Format profile : [email protected]
    Format settings : CABAC / 4 Ref Frames
    Format settings, CABAC : Yes
    Format settings, RefFrames : 4 frames
    Codec ID : V_MPEG4/ISO/AVC
    Duration : 56 min 33 s
    Bit rate : 9 551 kb/s
    Width : 1 920 pixels
    Height : 1 080 pixels
    Display aspect ratio : 16:9
    Frame rate mode : Constant
    Frame rate : 23.976 (24000/1001) FPS
    Color space : YUV
    Chroma subsampling : 4:2:0
    Bit depth : 8 bits
    Scan type : Progressive
    Bits/(Pixel*Frame) : 0.192
    Stream size : 3.77 GiB (86%)
    Title : Westworld.S01E05.1080p.BluRay.x264.DTS-jaideejung007
    Writing library : x264 core 152 r2851 ba24899
    Encoding settings : cabac=1 / ref=4 / deblock=1:-3:-3 / analyse=0x3:0x113 / me=umh / subme=8 / psy=1 / psy_rd=1.00:0.00 / mixed_ref=1 / me_range=32 / chroma_me=1 / trellis=2 / 8x8dct=1 / cqm=0 / deadzone=21,11 / fast_pskip=1 / chroma_qp_offset=-2 / threads=24 / lookahead_threads=4 / sliced_threads=0 / nr=0 / decimate=1 / interlaced=0 / bluray_compat=0 / constrained_intra=0 / bframes=3 / b_pyramid=2 / b_adapt=2 / b_bias=0 / direct=3 / weightb=1 / open_gop=0 / weightp=2 / keyint=240 / keyint_min=24 / scenecut=40 / intra_refresh=0 / rc_lookahead=50 / rc=2pass / mbtree=1 / bitrate=9551 / ratetol=1.0 / qcomp=0.60 / qpmin=0 / qpmax=69 / qpstep=4 / cplxblur=20.0 / qblur=0.5 / ip_ratio=1.40 / aq=3:0.80
    Language : English
    Default : Yes
    Forced : No

    Audio
    ID : 2
    Format : DTS
    Format/Info : Digital Theater Systems
    Mode : 16
    Format settings, Endianness : Big
    Codec ID : A_DTS
    Duration : 56 min 33 s
    Bit rate mode : Constant
    Bit rate : 1 509 kb/s
    Channel(s) : 6 channels
    Channel positions : Front: L C R, Side: L R, LFE
    Sampling rate : 48.0 kHz
    Frame rate : 93.750 FPS (512 SPF)
    Bit depth : 24 bits
    Compression mode : Lossy
    Stream size : 611 MiB (14%)
    Title : Westworld.S01E05.1080p.BluRay.x264.DTS-jaideejung007
    Language : English
    Default : Yes
    Forced : No

    Text #1
    ID : 3
    Format : VobSub
    Codec ID : S_VOBSUB
    Codec ID/Info : Picture based subtitle format used on DVDs
    Duration : 55 min 1 s
    Bit rate : 2 535 b/s
    Count of elements : 599
    Stream size : 1 022 KiB (0%)
    Title : Thai 480p
    Language : Thai
    Default : No
    Forced : No

    Text #2
    ID : 4
    Format : VobSub
    Codec ID : S_VOBSUB
    Codec ID/Info : Picture based subtitle format used on DVDs
    Duration : 55 min 1 s
    Bit rate : 4 982 b/s
    Count of elements : 599
    Stream size : 1.96 MiB (0%)
    Title : Thai 720p
    Language : Thai
    Default : No
    Forced : No

    Text #3
    ID : 5
    Format : VobSub
    Codec ID : S_VOBSUB
    Codec ID/Info : Picture based subtitle format used on DVDs
    Duration : 55 min 1 s
    Bit rate : 8 943 b/s
    Count of elements : 599
    Stream size : 3.52 MiB (0%)
    Title : Thai 1080p
    Language : Thai
    Default : Yes
    Forced : Yes

    Text #4
    ID : 6
    Format : VobSub
    Codec ID : S_VOBSUB
    Codec ID/Info : Picture based subtitle format used on DVDs
    Duration : 55 min 1 s
    Bit rate : 8 929 b/s
    Count of elements : 599
    Stream size : 3.51 MiB (0%)
    Title : Thai 1080p Yellow
    Language : Thai
    Default : No
    Forced : No

    Text #5
    ID : 7
    Format : PGS
    Codec ID : S_HDMV/PGS
    Codec ID/Info : Picture based subtitle format used on BDs/HD-DVDs
    Duration : 55 min 1 s
    Bit rate : 35.2 kb/s
    Count of elements : 1198
    Stream size : 13.8 MiB (0%)
    Title : Thai PGS
    Language : Thai
    Default : No
    Forced : No

    Text #6
    ID : 8
    Format : UTF-8
    Codec ID : S_TEXT/UTF8
    Codec ID/Info : UTF-8 Plain Text
    Duration : 56 min 28 s
    Bit rate : 54 b/s
    Count of elements : 694
    Stream size : 22.4 KiB (0%)
    Title : SDH
    Language : English
    Default : No
    Forced : No

    Menu
    00:00:00.000 : en:00:00:00.000
    00:01:44.688 : en:00:01:44.688
    00:11:53.296 : en:00:11:53.296
    00:17:03.940 : en:00:17:03.940
    00:26:44.478 : en:00:26:44.478
    00:36:57.090 : en:00:36:57.090
    00:48:26.070 : en:00:48:26.070
    00:55:23.570 : en:00:55:23.570






    ภาพตัวอย่าง SS-จับจากตัวไฟล์






    ตัวอย่างภาพยนตร์




    เล่าสู่กันฟัง
    ซับไทยจาก DVD Master

    แจ้งเพื่อทราบ: ซับไทย (IDX, PGS) สามารถเปิดได้ทุกเครื่องเล่น การันตี 99.99%

    แจ้งเพื่อทราบ 2: ทุกไฟล์ที่แจกในนี้ มี source มาจากต่างประเทศ คือ ไม่ตัด ไม่เซ็นเซอร์ครับ ไฟล์นี้ก็เช่นกัน

    jaideejung007



    Download: filecondo
    1
    http://www.filecondo.com/dl.php?f=2d962d1FiUJv
    2
    http://www.filecondo.com/dl.php?f=x6a0a81FiULk
    3
    http://www.filecondo.com/dl.php?f=m6ce041FiUPc
    4
    http://www.filecondo.com/dl.php?f=Cf3e061FiUR8
    5
    http://www.filecondo.com/dl.php?f=d4cb431FiUT5
    6
    http://www.filecondo.com/dl.php?f=s417131FiUV1
    7
    http://www.filecondo.com/dl.php?f=cf976f1FiUWY
    8
    http://www.filecondo.com/dl.php?f=i1b4531FiUYT
    9
    http://www.filecondo.com/dl.php?f=961cf51FiV0P
    10
    http://www.filecondo.com/dl.php?f=o32c551FiV43

    Download: cornfile
    Westworld.S01E01.1080p.BluRay.x264.DTS-jaideejung007.mkv - 5.5 GB
    Westworld.S01E02.1080p.BluRay.x264.DTS-jaideejung007.mkv - 4.4 GB
    Westworld.S01E03.1080p.BluRay.x264.DTS-jaideejung007.mkv - 4.4 GB
    Westworld.S01E04.1080p.BluRay.x264.DTS-jaideejung007.mkv - 4.4 GB
    Westworld.S01E05.1080p.BluRay.x264.DTS-jaideejung007.mkv - 4.4 GB
    Westworld.S01E06.1080p.BluRay.x264.DTS-jaideejung007.mkv - 4.4 GB
    Westworld.S01E07.1080p.BluRay.x264.DTS-jaideejung007.mkv - 4.4 GB
    Westworld.S01E08.1080p.BluRay.x264.DTS-jaideejung007.mkv - 4.4 GB
    Westworld.S01E09.1080p.BluRay.x264.DTS-jaideejung007.mkv - 4.4 GB
    Westworld.S01E10.1080p.BluRay.x264.DTS-jaideejung007.mkv - 7.7 GB

    Download: mekafile
    1
    http://www.mekafile.com/dl.php?f=oT0982bF8g3e
    2
    http://www.mekafile.com/dl.php?f=HSe8a1bF8gNR
    3
    http://www.mekafile.com/dl.php?f=XHd8eabF8h1w
    4
    http://www.mekafile.com/dl.php?f=uAcad8bF8gtE
    5
    http://www.mekafile.com/dl.php?f=21e842bF8gHc
    6
    http://www.mekafile.com/dl.php?f=2Fbf26bF8gUD
    7
    http://www.mekafile.com/dl.php?f=Vxf896bF8gg6
    8
    http://www.mekafile.com/dl.php?f=Dp0943bF8g9F
    9
    http://www.mekafile.com/dl.php?f=Gn6a42bF8gmL
    10
    http://www.mekafile.com/dl.php?f=fzc28bbF8gCe

    [ฝรั่ง]-[*เวอร์ชัน WEB-DL*] Westworld (2016) Complete Season 1 (Finale: Episode 1-10) [1080p WEB-DL] [เสียงอังกฤษ 5.1] [ซับไทยจาก DVD Master+อังกฤษ] [ซับ PGS, IDX, SRT คมบาดลึก]

  2. The Following 3 Users Say Thank You to Duckload.us For This Useful Post:

    beerdum (05-19-2018), noi54 (05-17-2018), Wesker_TOT (05-19-2018)

  3. #2
    Junior Member
    Join Date
    May 2013
    Posts
    16
    Thanks
    0
    Thanked 0 Times in 0 Posts
    ขอบพระคุณมาก ๆ ครับ

  4. #3
    Senior Member
    Join Date
    Dec 2013
    Posts
    1,211
    Thanks
    3,129
    Thanked 0 Times in 0 Posts
    ขอบคุณนะครับ...

  5. #4
    Senior Member
    Join Date
    Dec 2011
    Posts
    1,840
    Thanks
    0
    Thanked 0 Times in 0 Posts
    ขอบคุณนะคะ ที่อัพให้ครบทุกทางเลือกเลย

  6. #5
    Senior Member
    Join Date
    Jun 2014
    Posts
    250
    Thanks
    0
    Thanked 0 Times in 0 Posts
    ขอบคุณครับ

+ Reply to Thread

Thread Information

Users Browsing this Thread

There are currently 1 users browsing this thread. (0 members and 1 guests)

     

Posting Permissions

  • You may not post new threads
  • You may not post replies
  • You may not post attachments
  • You may not edit your posts