+ Reply to Thread
Results 1 to 3 of 3
  1. #1
    Administrators Duckload.us's Avatar
    Join Date
    Dec 2010
    Posts
    92,079
    Thanks
    9
    Thanked 94,676 Times in 45,590 Posts

    Question [ฝรั่ง]-Dragon Age DAWN OF THE SEEKER นักรบสาวพิภพมังกร -MiniBD.AC-3.720p. [rip from Master]-[พากย์ไทย บรรยายไทย]



    เรื่องย่อ
    ณ ดินแดนออร์ลาอิส ที่สงครามสู้รบกันด้วยดาบและเวทย์มนตร์ วีรสตรีผู้หนึ่งนามแคสแซนดร้าเติบโตมาเป็นนักรบศาสนา ผู้วิเศษ และ นักล่ามังกร เธอคือผู้แสวงหาและนัก
    ผจญภัยที่ต้องหยุดแผนชั่วร้ายที่คุกคามอาณาจักรโดยลั ทธิทรงอำนาจที่รู้จักกันว่า โบสถ์แห่งแอนดราสตี้ แคสแซนดร้าถูกกล่าวหาว่าเป็นผู้ทรยศจนต้องถูกตามล่าจ ากเพื่อนและศัตรู
    เธอจึงต้องพิสูจน์ความบริสุทธิ์ เอาชนะความโกรธ เพื่อขจัดความชั่วร้ายและทำให้เธอกลายเป็นตำนานในที่ สุด
    Format : Matroska
    File size : 3.13 GiB
    Duration : 1h 31mn
    Overall bit rate : 4 893 Kbps
    Movie name : 00000
    Encoded date : UTC 2013-05-31 23:59:42
    Writing application : mkvmerge v6.1.0 ( Old Devil ) built on Mar 2 2013 14:32:37
    Writing library : libebml v1.3.0 + libmatroska v1.4.0

    Video
    ID : 1
    Format : AVC
    Format/Info : Advanced Video Codec
    Format profile : [email protected]
    Format settings, CABAC : Yes
    Format settings, ReFrames : 8 frames
    Codec ID : V_MPEG4/ISO/AVC
    Duration : 1h 31mn
    Bit rate mode : Variable
    Bit rate : 4 028 Kbps
    Nominal bit rate : 4 238 Kbps
    Maximum bit rate : 300 Mbps
    Width : 1 280 pixels
    Height : 720 pixels
    Display aspect ratio : 16:9
    Frame rate : 23.976 fps
    Color space : YUV
    Chroma subsampling : 4:2:0
    Bit depth : 8 bits
    Scan type : Progressive
    Bits/(Pixel*Frame) : 0.182
    Stream size : 2.58 GiB (82%)
    Title : [Mini-hidef-Animation] Dragon Age Dawn Of The Seeker 2012 720p HQ-CtHts
    Writing library : x264 core 120 r2120 0c7dab9
    Encoding settings : cabac=1 / ref=8 / deblock=1:-1:-1 / analyse=0x3:0x133 / me=umh / subme=10 / psy=1 / psy_rd=1.00:0.15 / mixed_ref=1 / me_range=24 / chroma_me=1 / trellis=2 / 8x8dct=1 / cqm=0 / deadzone=21,11 / fast_pskip=1 / chroma_qp_offset=-3 / threads=9 / sliced_threads=0 / nr=0 / decimate=1 / interlaced=0 / bluray_compat=0 / constrained_intra=0 / bframes=3 / b_pyramid=0 / b_adapt=2 / b_bias=0 / direct=3 / weightb=1 / open_gop=0 / weightp=2 / keyint=240 / keyint_min=24 / scenecut=40 / intra_refresh=0 / rc_lookahead=60 / rc=2pass / mbtree=1 / bitrate=4238 / ratetol=1.0 / qcomp=0.60 / qpmin=0 / qpmax=69 / qpstep=4 / cplxblur=20.0 / qblur=0.5 / vbv_maxrate=300000 / vbv_bufsize=300000 / nal_hrd=vbr / ip_ratio=1.40 / aq=1:1.00

    Audio #1
    ID : 2
    Format : AC-3
    Format/Info : Audio Coding 3
    Mode extension : CM (complete main)
    Codec ID : A_AC3
    Duration : 1h 31mn
    Bit rate mode : Constant
    Bit rate : 384 Kbps
    Channel(s) : 6 channels
    Channel positions : Front: L C R, Side: L R, LFE
    Sampling rate : 48.0 KHz
    Bit depth : 16 bits
    Compression mode : Lossy
    Stream size : 252 MiB (8%)
    Title : ac3 master
    Language : Thai

    Audio #2
    ID : 3
    Format : AC-3
    Format/Info : Audio Coding 3
    Mode extension : CM (complete main)
    Codec ID : A_AC3
    Duration : 1h 31mn
    Bit rate mode : Constant
    Bit rate : 384 Kbps
    Channel(s) : 6 channels
    Channel positions : Front: L C R, Side: L R, LFE
    Sampling rate : 48.0 KHz
    Bit depth : 16 bits
    Compression mode : Lossy
    Stream size : 252 MiB (8%)
    Title : ac3 br-master
    Language : Japanese

    Text #1
    ID : 4
    Format : VobSub
    Muxing mode : zlib
    Codec ID : S_VOBSUB
    Codec ID/Info : The same subtitle format used on DVDs
    Title : Sub Thai 480p Verdana
    Language : Thai

    Text #2
    ID : 5
    Format : VobSub
    Muxing mode : zlib
    Codec ID : S_VOBSUB
    Codec ID/Info : The same subtitle format used on DVDs
    Title : Sub Thai 1080p Verdana
    Language : Thai

    Text #3
    ID : 6
    Format : PGS
    Muxing mode : zlib
    Codec ID : S_HDMV/PGS
    Codec ID/Info : The same subtitle format used on BDs/HD-DVDs
    Title : Sub Thai PGS Verdana
    Language : Thai

    Text #4
    ID : 7
    Format : UTF-8
    Codec ID : S_TEXT/UTF8
    Codec ID/Info : UTF-8 Plain Text
    Title : Sub Thai From DVD Master
    Language : Thai

    Text #5
    ID : 8
    Format : UTF-8
    Codec ID : S_TEXT/UTF8
    Codec ID/Info : UTF-8 Plain Text
    Title : Sub English SRT
    Language : English






    Download: cornfile
    http://cornfile.com/cb2hw4yn189a
    Download: mekafile
    http://www.mekafile.com/dl.php?f=vy6111bGeUvU

  2. The Following 2 Users Say Thank You to Duckload.us For This Useful Post:

    apichartdear (06-13-2018), n_ton (06-13-2018)

  3. #2
    Junior Member
    Join Date
    Oct 2013
    Posts
    4
    Thanks
    196
    Thanked 0 Times in 0 Posts
    cornfile โหลดไม่ได้ครับ

  4. #3
    Senior Member
    Join Date
    Mar 2013
    Posts
    1,249
    Thanks
    1,270
    Thanked 0 Times in 0 Posts
    ขอบคุณครับ

+ Reply to Thread

Thread Information

Users Browsing this Thread

There are currently 1 users browsing this thread. (0 members and 1 guests)

     

Posting Permissions

  • You may not post new threads
  • You may not post replies
  • You may not post attachments
  • You may not edit your posts