+ Reply to Thread
Results 1 to 1 of 1
  1. #1
    Administrators Duckload.us's Avatar
    Join Date
    Dec 2010
    Posts
    93,597
    Thanks
    9
    Thanked 96,045 Times in 46,219 Posts

    Question [] Marco Polo 4K.UHD.2160p Netflix WEB-DL x265 10bit HDR DTS-HD MA.5.1 [Master]-[Soundtrack ]






    Marco Polo

    Adventure, Drama, History | TV Series (20142016)


    In a world replete with greed, betrayal, sexual intrigue and rivalry, Marco Polo is based on the famed explorer s adventures in Kublai Khan s court in 13th century Mongolia.



    Creator: John Fusco
    Stars: Lorenzo Richelmy, Benedict Wong, Joan Chen




    Marco Polo is an American drama web television series inspired by Marco Polo s early years in the court of Kublai Khan, the Khagan of the Mongol Empire and the founder of the Yuan dynasty (12711368). The show premiered on Netflix on December 12, 2014.[2] The series was written and created by John Fusco and stars Lorenzo Richelmy in the title role with Benedict Wong as Kublai Khan.[3] The series is produced by The Weinstein Company. On January 7, 2015, Marco Polo was renewed by Netflix for a 10-episode second season, which premiered on July 1, 2016.[4]

    On December 12, 2016, Netflix announced they had canceled Marco Polo after two seasons. Sources told The Hollywood Reporter that the series two seasons resulted in a $200 million loss for Netflix, and the decision to cancel the series was jointly taken by Netflix and The Weinstein Company.














    Ҿ Screen shot ҡ

    *** ˵ : Ҿ Screenshot ҡ ŧҾ 繹ʡ .JPG բҴҧ§ 1,500 pixel Ѻùʹ㹡з ͹ ѴѹͧŴŧ ҹö٤Ѵ鹩Ѻ駤ҧҧ

    https://imagecurl.com/viewer.php?fil...5581069154.png
    https://imagecurl.com/viewer.php?fil...9838268690.png
    https://imagecurl.com/viewer.php?fil...2398204575.png


    Show / Hide media info

    * INFO Report !*
    Video
    ID : 1
    Format : HEVC
    Format/Info : High Efficiency Video Coding
    Commercial name : HDR10
    Format profile : Main [email protected]@Main
    Codec ID : V_MPEGH/ISO/HEVC
    Duration : 56 min 34 s
    Bit rate : 28.2 Mb/s
    Width : 3 840 pixels
    Height : 1 920 pixels
    Display aspect ratio : 2.000
    Frame rate mode : Constant
    Frame rate : 23.976 (24000/1001) FPS
    Color space : YUV
    Chroma subsampling : 4:2:0
    Bit depth : 10 bits
    Bits/(Pixel*Frame) : 0.160
    Stream size : 11.1 GiB (95%)
    Writing library : x265 2.8+12-9cde2c278464:[Windows][MSVC 1914][64 bit] 10bit
    Encoding settings : cpuid=1176575 / frame-threads=4 / numa-pools=28 / wpp / no-pmode / no-pme / no-psnr / no-ssim / log-level=2 / input-csp=1 / input-res=3840x1920 / interlace=0 / total-frames=0 / level-idc=0 / high-tier=1 / uhd-bd=0 / ref=5 / no-allow-non-conformance / repeat-headers / annexb / no-aud / no-hrd / info / hash=0 / no-temporal-layers / open-gop / min-keyint=23 / keyint=250 / gop-lookahead=0 / bframes=8 / b-adapt=2 / b-pyramid / bframe-bias=0 / rc-lookahead=40 / lookahead-slices=0 / scenecut=40 / radl=0 / no-intra-refresh / ctu=64 / min-cu-size=8 / rect / amp / max-tu-size=32 / tu-inter-depth=3 / tu-intra-depth=3 / limit-tu=4 / rdoq-level=2 / dynamic-rd=0.00 / no-ssim-rd / signhide / no-tskip / nr-intra=0 / nr-inter=0 / no-constrained-intra / no-strong-intra-smoothing / max-merge=4 / limit-refs=1 / limit-modes / me=3 / subme=4 / merange=57 / temporal-mvp / weightp / weightb / no-analyze-src-pics / deblock=-3:-3 / sao / no-sao-non-deblock / rd=6 / no-early-skip / rskip / no-fast-intra / no-tskip-fast / no-cu-lossless / b-intra / no-splitrd-skip / rdpenalty=0 / psy-rd=2.00 / psy-rdoq=1.00 / no-rd-refine / no-lossless / cbqpoffs=0 / crqpoffs=0 / rc=crf / crf=12.0 / qcomp=0.80 / qpstep=4 / stats-write=0 / stats-read=0 / ipratio=1.40 / pbratio=1.30 / aq-mode=3 / aq-strength=0.80 / cutree / zone-count=0 / no-strict-cbr / qg-size=32 / no-rc-grain / qpmax=69 / qpmin=0 / no-const-vbv / sar=0 / overscan=0 / videoformat=5 / range=0 / colorprim=9 / transfer=16 / colormatrix=9 / chromaloc=0 / display-window=0 / master-display=G(13250,34500)B(7500,3000)R(34000,16000)WP (15635,16450)L(40000000,50) / max-cll=327,246 / min-luma=0 / max-luma=1023 / log2-max-poc-lsb=8 / vui-timing-info / vui-hrd-info / slices=1 / no-opt-qp-pps / no-opt-ref-list-length-pps / no-multi-pass-opt-rps / scenecut-bias=0.05 / no-opt-cu-delta-qp / no-aq-motion / hdr / hdr-opt / no-dhdr10-opt / no-idr-recovery-sei / analysis-reuse-level=5 / scale-factor=0 / refine-intra=0 / refine-inter=0 / refine-mv=0 / limit-sao / ctu-info=0 / no-lowpass-dct / refine-mv-type=0 / copy-pic=1 / max-ausize-factor=1.0 / no-dynamic-refine / no-single-sei
    Default : Yes
    Forced : No
    Color range : Limited
    Color primaries : BT.2020
    Transfer characteristics : PQ
    Matrix coefficients : BT.2020 non-constant
    Mastering display color primaries : Display P3
    Mastering display luminance : min: 0.0050 cd/m2, max: 4000 cd/m2
    Maximum Content Light Level : 327 cd/m2
    Maximum Frame-Average Light Level : 246 cd/m2

    Audio
    ID : 2
    Format : DTS
    Format/Info : Digital Theater Systems
    Format profile : MA / Core
    Codec ID : A_DTS
    Duration : 56 min 38 s
    Bit rate mode : Variable / Constant
    Bit rate : 1 621 kb/s / 768 kb/s
    Channel(s) : 6 channels
    Channel positions : Front: L C R, Side: L R, LFE
    Sampling rate : 48.0 kHz
    Frame rate : 93.750 FPS (512 SPF)
    Bit depth : 16 bits
    Compression mode : Lossless / Lossy
    Stream size : 657 MiB (5%)
    Language : English
    Default : Yes
    Forced : No

    Text #1
    ID : 3
    Format : UTF-8
    Codec ID : S_TEXT/UTF8
    Codec ID/Info : UTF-8 Plain Text
    Duration : 53 min 6 s
    Bit rate : 27 b/s
    Count of elements : 328
    Stream size : 10.9 KiB (0%)
    Language : English
    Default : No
    Forced : No

    Text #2
    ID : 4
    Format : UTF-8
    Codec ID : S_TEXT/UTF8
    Codec ID/Info : UTF-8 Plain Text
    Duration : 53 min 6 s
    Bit rate : 31 b/s
    Count of elements : 387
    Stream size : 12.3 KiB (0%)
    Title : SDH
    Language : English
    Default : No
    Forced : No

    Text #3
    ID : 5
    Format : UTF-8
    Codec ID : S_TEXT/UTF8
    Codec ID/Info : UTF-8 Plain Text
    Duration : 53 min 6 s
    Bit rate : 58 b/s
    Count of elements : 329
    Stream size : 22.7 KiB (0%)
    Language : Arabic
    Default : No
    Forced : No

    Text #4
    ID : 6
    Format : UTF-8
    Codec ID : S_TEXT/UTF8
    Codec ID/Info : UTF-8 Plain Text
    Duration : 53 min 6 s
    Bit rate : 42 b/s
    Count of elements : 321
    Stream size : 16.6 KiB (0%)
    Language : Bulgarian
    Default : No
    Forced : No

    Text #5
    ID : 7
    Format : UTF-8
    Codec ID : S_TEXT/UTF8
    Codec ID/Info : UTF-8 Plain Text
    Duration : 53 min 11 s
    Bit rate : 29 b/s
    Count of elements : 325
    Stream size : 11.6 KiB (0%)
    Language : Czech
    Default : No
    Forced : No

    Text #6
    ID : 8
    Format : UTF-8
    Codec ID : S_TEXT/UTF8
    Codec ID/Info : UTF-8 Plain Text
    Duration : 53 min 6 s
    Bit rate : 29 b/s
    Count of elements : 327
    Stream size : 11.6 KiB (0%)
    Language : Danish
    Default : No
    Forced : No

    Text #7
    ID : 9
    Format : UTF-8
    Codec ID : S_TEXT/UTF8
    Codec ID/Info : UTF-8 Plain Text
    Duration : 53 min 6 s
    Bit rate : 28 b/s
    Count of elements : 328
    Stream size : 11.2 KiB (0%)
    Language : German
    Default : No
    Forced : No

    Text #8
    ID : 10
    Format : UTF-8
    Codec ID : S_TEXT/UTF8
    Codec ID/Info : UTF-8 Plain Text
    Duration : 53 min 10 s
    Bit rate : 50 b/s
    Count of elements : 375
    Stream size : 19.7 KiB (0%)
    Language : Greek
    Default : No
    Forced : No

    Text #9
    ID : 11
    Format : UTF-8
    Codec ID : S_TEXT/UTF8
    Codec ID/Info : UTF-8 Plain Text
    Duration : 53 min 6 s
    Bit rate : 29 b/s
    Count of elements : 328
    Stream size : 11.6 KiB (0%)
    Language : Spanish
    Default : No
    Forced : No

    Text #10
    ID : 12
    Format : UTF-8
    Codec ID : S_TEXT/UTF8
    Codec ID/Info : UTF-8 Plain Text
    Duration : 53 min 6 s
    Bit rate : 29 b/s
    Count of elements : 327
    Stream size : 11.5 KiB (0%)
    Title : European
    Language : Spanish
    Default : No
    Forced : No

    Text #11
    ID : 13
    Format : UTF-8
    Codec ID : S_TEXT/UTF8
    Codec ID/Info : UTF-8 Plain Text
    Duration : 53 min 6 s
    Bit rate : 28 b/s
    Count of elements : 316
    Stream size : 11.1 KiB (0%)
    Language : Finnish
    Default : No
    Forced : No

    Text #12
    ID : 14
    Format : UTF-8
    Codec ID : S_TEXT/UTF8
    Codec ID/Info : UTF-8 Plain Text
    Duration : 53 min 11 s
    Bit rate : 31 b/s
    Count of elements : 328
    Stream size : 12.4 KiB (0%)
    Language : French
    Default : No
    Forced : No

    Text #13
    ID : 15
    Format : UTF-8
    Codec ID : S_TEXT/UTF8
    Codec ID/Info : UTF-8 Plain Text
    Duration : 53 min 6 s
    Bit rate : 42 b/s
    Count of elements : 322
    Stream size : 16.7 KiB (0%)
    Language : Hebrew
    Default : No
    Forced : No

    Text #14
    ID : 16
    Format : UTF-8
    Codec ID : S_TEXT/UTF8
    Codec ID/Info : UTF-8 Plain Text
    Duration : 53 min 11 s
    Bit rate : 74 b/s
    Count of elements : 344
    Stream size : 29.2 KiB (0%)
    Language : Hindi
    Default : No
    Forced : No

    Text #15
    ID : 17
    Format : UTF-8
    Codec ID : S_TEXT/UTF8
    Codec ID/Info : UTF-8 Plain Text
    Duration : 53 min 11 s
    Bit rate : 26 b/s
    Count of elements : 320
    Stream size : 10.5 KiB (0%)
    Language : Croatian
    Default : No
    Forced : No

    Text #16
    ID : 18
    Format : UTF-8
    Codec ID : S_TEXT/UTF8
    Codec ID/Info : UTF-8 Plain Text
    Duration : 53 min 6 s
    Bit rate : 29 b/s
    Count of elements : 312
    Stream size : 11.5 KiB (0%)
    Language : Hungarian
    Default : No
    Forced : No

    Text #17
    ID : 19
    Format : UTF-8
    Codec ID : S_TEXT/UTF8
    Codec ID/Info : UTF-8 Plain Text
    Duration : 53 min 11 s
    Bit rate : 29 b/s
    Count of elements : 332
    Stream size : 11.6 KiB (0%)
    Language : Indonesian
    Default : No
    Forced : No

    Text #18
    ID : 20
    Format : UTF-8
    Codec ID : S_TEXT/UTF8
    Codec ID/Info : UTF-8 Plain Text
    Duration : 53 min 6 s
    Bit rate : 31 b/s
    Count of elements : 326
    Stream size : 12.1 KiB (0%)
    Language : Italian
    Default : No
    Forced : No

    Text #19
    ID : 21
    Format : UTF-8
    Codec ID : S_TEXT/UTF8
    Codec ID/Info : UTF-8 Plain Text
    Duration : 53 min 6 s
    Bit rate : 25 b/s
    Count of elements : 315
    Stream size : 9.84 KiB (0%)
    Language : Japanese
    Default : No
    Forced : No

    Text #20
    ID : 22
    Format : UTF-8
    Codec ID : S_TEXT/UTF8
    Codec ID/Info : UTF-8 Plain Text
    Duration : 53 min 6 s
    Bit rate : 29 b/s
    Count of elements : 328
    Stream size : 11.6 KiB (0%)
    Language : Korean
    Default : No
    Forced : No

    Text #21
    ID : 23
    Format : UTF-8
    Codec ID : S_TEXT/UTF8
    Codec ID/Info : UTF-8 Plain Text
    Duration : 53 min 10 s
    Bit rate : 29 b/s
    Count of elements : 326
    Stream size : 11.5 KiB (0%)
    Language : Malay
    Default : No
    Forced : No

    Text #22
    ID : 24
    Format : UTF-8
    Codec ID : S_TEXT/UTF8
    Codec ID/Info : UTF-8 Plain Text
    Duration : 53 min 6 s
    Bit rate : 28 b/s
    Count of elements : 328
    Stream size : 11.1 KiB (0%)
    Language : Norwegian Bokmal
    Default : No
    Forced : No

    Text #23
    ID : 25
    Format : UTF-8
    Codec ID : S_TEXT/UTF8
    Codec ID/Info : UTF-8 Plain Text
    Duration : 53 min 6 s
    Bit rate : 28 b/s
    Count of elements : 268
    Stream size : 11.0 KiB (0%)
    Language : Dutch
    Default : No
    Forced : No

    Text #24
    ID : 26
    Format : UTF-8
    Codec ID : S_TEXT/UTF8
    Codec ID/Info : UTF-8 Plain Text
    Duration : 53 min 6 s
    Bit rate : 28 b/s
    Count of elements : 340
    Stream size : 10.9 KiB (0%)
    Language : Polish
    Default : No
    Forced : No

    Text #25
    ID : 27
    Format : UTF-8
    Codec ID : S_TEXT/UTF8
    Codec ID/Info : UTF-8 Plain Text
    Duration : 53 min 6 s
    Bit rate : 29 b/s
    Count of elements : 329
    Stream size : 11.5 KiB (0%)
    Language : Portuguese
    Default : No
    Forced : No

    Text #26
    ID : 28
    Format : UTF-8
    Codec ID : S_TEXT/UTF8
    Codec ID/Info : UTF-8 Plain Text
    Duration : 53 min 6 s
    Bit rate : 28 b/s
    Count of elements : 328
    Stream size : 11.3 KiB (0%)
    Title : Brazilian
    Language : Portuguese
    Default : No
    Forced : No

    Text #27
    ID : 29
    Format : UTF-8
    Codec ID : S_TEXT/UTF8
    Codec ID/Info : UTF-8 Plain Text
    Duration : 53 min 11 s
    Bit rate : 30 b/s
    Count of elements : 329
    Stream size : 11.7 KiB (0%)
    Language : Romanian
    Default : No
    Forced : No

    Text #28
    ID : 30
    Format : UTF-8
    Codec ID : S_TEXT/UTF8
    Codec ID/Info : UTF-8 Plain Text
    Duration : 53 min 10 s
    Bit rate : 45 b/s
    Count of elements : 394
    Stream size : 17.6 KiB (0%)
    Language : Russian
    Default : No
    Forced : No

    Text #29
    ID : 31
    Format : UTF-8
    Codec ID : S_TEXT/UTF8
    Codec ID/Info : UTF-8 Plain Text
    Duration : 53 min 11 s
    Bit rate : 28 b/s
    Count of elements : 326
    Stream size : 10.9 KiB (0%)
    Language : Slovak
    Default : No
    Forced : No

    Text #30
    ID : 32
    Format : UTF-8
    Codec ID : S_TEXT/UTF8
    Codec ID/Info : UTF-8 Plain Text
    Duration : 53 min 6 s
    Bit rate : 28 b/s
    Count of elements : 327
    Stream size : 11.2 KiB (0%)
    Language : Swedish
    Default : No
    Forced : No

    Text #31
    ID : 33
    Format : UTF-8
    Codec ID : S_TEXT/UTF8
    Codec ID/Info : UTF-8 Plain Text
    Duration : 53 min 11 s
    Bit rate : 69 b/s
    Count of elements : 308
    Stream size : 27.1 KiB (0%)
    Language : Thai
    Default : No
    Forced : No

    Text #32
    ID : 34
    Format : UTF-8
    Codec ID : S_TEXT/UTF8
    Codec ID/Info : UTF-8 Plain Text
    Duration : 53 min 5 s
    Bit rate : 33 b/s
    Count of elements : 348
    Stream size : 13.0 KiB (0%)
    Language : Tagalog
    Default : No
    Forced : No

    Text #33
    ID : 35
    Format : UTF-8
    Codec ID : S_TEXT/UTF8
    Codec ID/Info : UTF-8 Plain Text
    Duration : 53 min 6 s
    Bit rate : 29 b/s
    Count of elements : 336
    Stream size : 11.6 KiB (0%)
    Language : Turkish
    Default : No
    Forced : No

    Text #34
    ID : 36
    Format : UTF-8
    Codec ID : S_TEXT/UTF8
    Codec ID/Info : UTF-8 Plain Text
    Duration : 53 min 10 s
    Bit rate : 43 b/s
    Count of elements : 398
    Stream size : 16.9 KiB (0%)
    Language : Ukrainian
    Default : No
    Forced : No

    Text #35
    ID : 37
    Format : UTF-8
    Codec ID : S_TEXT/UTF8
    Codec ID/Info : UTF-8 Plain Text
    Duration : 53 min 11 s
    Bit rate : 41 b/s
    Count of elements : 322
    Stream size : 16.2 KiB (0%)
    Language : Vietnamese
    Default : No
    Forced : No

    Text #36
    ID : 38
    Format : UTF-8
    Codec ID : S_TEXT/UTF8
    Codec ID/Info : UTF-8 Plain Text
    Duration : 53 min 6 s
    Bit rate : 22 b/s
    Count of elements : 328
    Stream size : 8.95 KiB (0%)
    Title : Simplified
    Language : Chinese
    Default : No
    Forced : No

    Text #37
    ID : 39
    Format : UTF-8
    Codec ID : S_TEXT/UTF8
    Codec ID/Info : UTF-8 Plain Text
    Duration : 53 min 6 s
    Bit rate : 22 b/s
    Count of elements : 328
    Stream size : 8.56 KiB (0%)
    Title : Traditional
    Language : Chinese
    Default : No
    Forced : No

    Menu
    00:00:00.000 : en:Chapter 1
    00:10:46.646 : en:Chapter 2
    00:20:34.483 : en:Chapter 3
    00:29:07.662 : en:Chapter 4
    00:37:56.565 : en:Chapter 5
    00:47:08.158 : en:Chapter 6

    , ´, ٻҾ ҹҪԡҹФѺ

    : https://www.imdb.com/title/tt2189461/

    : https://en.wikipedia.org/wiki/Marco_Polo_(TV_series) <<< ͧ copy link ҧ s--cript ͧ Դ underscore ( _ ) Ѻ

    : https://www.youtube.com/watch?v=X47BB82s5AI






    Download: cornfile
    Marco Polo S01E01 The Wayfarer 2160p HDR Netflix WEBRip DTS-HD MA 5.1 [email protected] - 7.3 GB
    Marco Polo S01E02 The Wolf and the Deer 2160p HDR Netflix WEBRip DTS-HD MA 5.1 [email protected] - 8.7 GB
    Marco Polo S01E03 Feast 2160p HDR Netflix WEBRip DTS-HD MA 5.1 [email protected] - 10.9 GB
    Marco Polo S01E04 The Fourth Step 2160p HDR Netflix WEBRip DTS-HD MA 5.1 [email protected] - 9.3 GB
    Marco Polo S01E05 Hashshashin 2160p HDR Netflix WEBRip DTS-HD MA 5.1 [email protected] - 11.3 GB
    Marco Polo S01E06 White Moon 2160p HDR Netflix WEBRip DTS-HD MA 5.1 [email protected] - 10.5 GB
    Marco Polo S01E07 The Scholar's Pen 2160p HDR Netflix WEBRip DTS-HD MA 5.1 [email protected] - 8.0 GB
    Marco Polo S01E08 Rendering 2160p HDR Netflix WEBRip DTS-HD MA 5.1 [email protected] - 11.5 GB
    Marco Polo S01E09 Prisoners 2160p HDR Netflix WEBRip DTS-HD MA 5.1 [email protected] - 9.1 GB
    Marco Polo S01E10 The Heavenly and Primal 2160p HDR Netflix WEBRip DTS-HD MA 5.1 [email protected] - 11.8 GB

    Download: mekafile
    1
    http://www.mekafile.com/dl.php?f=Twb332bGQ0v3
    2
    http://www.mekafile.com/dl.php?f=va8cfcbGQ1Jn
    3
    http://www.mekafile.com/dl.php?f=wZ4abdbGQ1YC
    4
    http://www.mekafile.com/dl.php?f=5U6f07bGQ1PV
    5
    http://www.mekafile.com/dl.php?f=d7e535bGQ1kZ
    6
    http://www.mekafile.com/dl.php?f=iN9d76bGQ1x4
    7
    http://www.mekafile.com/dl.php?f=uf5ec1bGQ0Kb
    8
    http://www.mekafile.com/dl.php?f=AJ1ab2bGQ0Sx
    9
    http://www.mekafile.com/dl.php?f=gdb9c5bGQ0E5
    10
    http://www.mekafile.com/dl.php?f=oK7e73bGQ17r

  2. The Following User Says Thank You to Duckload.us For This Useful Post:

    MidNightt (06-29-2018)

Thread Information

Users Browsing this Thread

There are currently 1 users browsing this thread. (0 members and 1 guests)

     

Posting Permissions

  • You may not post new threads
  • You may not post replies
  • You may not post attachments
  • You may not edit your posts