Burning Ice



Rating: 7.8/10 Year: 2017 Genres: Crime / Drama / Mystery / Thriller Runtime: n/A Language: Chinese Director: n/A Writers: Wengui Chen / Xu Chen / Weiba Ma Cast: Hao Qin / Jiajia Deng / Lu YaoPlot:

To protect his high-school crush, an average low-level office boy became the primary suspect in a homicide investigation. His ordinary life completely changed as he meets the pressure from both the police and local gang members. At the end, humanity is distorted by the survival instinct. After his wife and daughter disappeared, a former medical examiner spent 10 years searching for any trace of his family. Driven by desperation, he committed serial murder to find answer, even if it was more than he could bear. An irrational, dishonored policeman with a sharp mind was in exile. To return to the force, he must solve an unsolvable puzzle and make the sinners pay for their sins. However, he must find the prove when the truth was staring at him in the eye. Lies were covered up by bigger lies as crimes were hidden in bigger crimes. After darkness fell, the faintest light from human goodness was the only hope. Written by Hao Wu











§ չ : Ӻ PGS / ٷ SS


Quote:
ͧ
ѹԵ (Burning Ice): ѡҹͿȤ˹觾ͧѡ Ҩ֧ͧ仾ǾѹѺҵ͹͹з ͺਵӹ觡ժԵʹ







Quote:
General
Unique ID : 280641983179648876623621276616494407577 (0xD321AE0E4E4E7277C0B358302943DF99)
Complete name : D:BitBurning Ice S01 - TH.EN.NETFLIX.1080p.x264.AC3.2.0-HiDe80Burning Ice S01E02.TH.EN.NETFLIX.1080p.x264.AC3.2.0-HiDe80.mkv
Format : Matroska
Format version : Version 4 / Version 2
File size : 1.23 GiB
Duration : 58 min 6 s
Overall bit rate mode : Variable
Overall bit rate : 3 023 kb/s
Encoded date : UTC 2018-07-05 09:53:02
Writing application : mkvmerge v21.0.0 ( Tardigrades Will Inherit The Earth ) 64-bit
Writing library : libebml v1.3.5 + libmatroska v1.4.8

Video
ID : 1
Format : AVC
Format/Info : Advanced Video Codec
Format profile : [email protected]
Format settings : CABAC / 3 Ref Frames
Format settings, CABAC : Yes
Format settings, RefFrames : 3 frames
Codec ID : V_MPEG4/ISO/AVC
Duration : 58 min 5 s
Bit rate mode : Variable
Bit rate : 2 870 kb/s
Maximum bit rate : 4 305 kb/s
Width : 1 920 pixels
Height : 1 080 pixels
Display aspect ratio : 16:9
Frame rate mode : Constant
Frame rate : 25.000 FPS
Color space : YUV
Chroma subsampling : 4:2:0
Bit depth : 8 bits
Scan type : Progressive
Bits/(Pixel*Frame) : 0.055
Stream size : 1.16 GiB (95%)
Writing library : x264 core 148 r2714 2daf636
Encoding settings : cabac=1 / ref=3 / deblock=1:0:0 / analyse=0x1:0x111 / me=umh / subme=10 / psy=1 / psy_rd=1.00:0.00 / mixed_ref=1 / me_range=24 / chroma_me=1 / trellis=2 / 8x8dct=0 / cqm=0 / deadzone=21,11 / fast_pskip=1 / chroma_qp_offset=-2 / threads=8 / lookahead_threads=1 / sliced_threads=0 / nr=0 / decimate=1 / interlaced=0 / bluray_compat=0 / stitchable=1 / constrained_intra=0 / bframes=2 / b_pyramid=0 / b_adapt=2 / b_bias=0 / direct=3 / weightb=1 / open_gop=0 / weightp=2 / keyint=50 / keyint_min=26 / scenecut=0 / intra_refresh=0 / rc_lookahead=50 / rc=2pass / mbtree=1 / bitrate=2870 / ratetol=1.0 / qcomp=0.50 / qpmin=6 / qpmax=51 / qpstep=4 / cplxblur=20.0 / qblur=0.5 / vbv_maxrate=4305 / vbv_bufsize=5740 / nal_hrd=vbr / filler=0 / ip_ratio=1.40 / aq=1:1.00
Default : Yes
Forced : No

Audio
ID : 2
Format : E-AC-3
Format/Info : Enhanced Audio Coding 3
Format settings, Endianness : Big
Codec ID : A_EAC3
Duration : 58 min 6 s
Bit rate mode : Constant
Bit rate : 128 kb/s
Channel(s) : 2 channels
Channel positions : Front: L R
Sampling rate : 48.0 kHz
Frame rate : 187.500 FPS (256 SPF)
Compression mode : Lossy
Stream size : 53.2 MiB (4%)
Title : Mandarin
Language : Chinese
Service kind : Complete Main
Default : Yes
Forced : No

Text #1
ID : 3
Format : UTF-8
Codec ID : S_TEXT/UTF8
Codec ID/Info : UTF-8 Plain Text
Duration : 53 min 26 s
Bit rate : 61 b/s
Count of elements : 765
Stream size : 24.0 KiB (0%)
Language : English
Default : No
Forced : No

Text #2
ID : 4
Format : UTF-8
Codec ID : S_TEXT/UTF8
Codec ID/Info : UTF-8 Plain Text
Duration : 53 min 26 s
Bit rate : 57 b/s
Count of elements : 759
Stream size : 22.5 KiB (0%)
Language : Korean
Default : No
Forced : No

Text #3
ID : 5
Format : UTF-8
Codec ID : S_TEXT/UTF8
Codec ID/Info : UTF-8 Plain Text
Duration : 53 min 26 s
Bit rate : 125 b/s
Count of elements : 776
Stream size : 49.2 KiB (0%)
Language : Thai
Default : No
Forced : No

Text #4
ID : 6
Format : UTF-8
Codec ID : S_TEXT/UTF8
Codec ID/Info : UTF-8 Plain Text
Duration : 53 min 26 s
Bit rate : 74 b/s
Count of elements : 775
Stream size : 29.0 KiB (0%)
Language : Vietnamese
Default : No
Forced : No

Text #5
ID : 7
Format : UTF-8
Codec ID : S_TEXT/UTF8
Codec ID/Info : UTF-8 Plain Text
Duration : 52 min 19 s
Bit rate : 46 b/s
Count of elements : 867
Stream size : 18.0 KiB (0%)
Title : Simplified
Language : Chinese
Default : No
Forced : No

Text #6
ID : 8
Format : UTF-8
Codec ID : S_TEXT/UTF8
Codec ID/Info : UTF-8 Plain Text
Duration : 52 min 22 s
Bit rate : 50 b/s
Count of elements : 881
Stream size : 19.3 KiB (0%)
Title : Traditional
Language : Chinese
Default : No
Forced : No

Text #7
ID : 9
Format : PGS
Muxing mode : zlib
Codec ID : S_HDMV/PGS
Codec ID/Info : Picture based subtitle format used on BDs/HD-DVDs
Duration : 53 min 40 s
Bit rate : 51.2 kb/s
Count of elements : 1588
Stream size : 19.7 MiB (2%)
Title : thpgs
Language : Thai
Default : Yes
Forced : No


1
http://www.filecondo.com/dl.php?f=Wcd7031FCNIT
2
http://www.filecondo.com/dl.php?f=L536131FCNJS
3
http://www.filecondo.com/dl.php?f=tdf93f1FCNKO
4
http://www.filecondo.com/dl.php?f=55a5961FCNLM
5
http://www.filecondo.com/dl.php?f=kd62381FCNMO
6
http://www.filecondo.com/dl.php?f=Ef36531FCNNK
7
http://www.filecondo.com/dl.php?f=n220611FCNOF
8
http://www.filecondo.com/dl.php?f=u01a911FCNPF
9
http://www.filecondo.com/dl.php?f=Pf8f091FCNQC
10
http://www.filecondo.com/dl.php?f=Lf0c701FCNRF
11
http://www.filecondo.com/dl.php?f=73bf861FCNSA
12
http://www.filecondo.com/dl.php?f=0c84b41FCNTx