+ Reply to Thread
Results 1 to 3 of 3
  1. #1
    Administrators Duckload.us's Avatar
    Join Date
    Dec 2010
    Posts
    93,597
    Thanks
    9
    Thanked 96,045 Times in 46,219 Posts

    Question [ฝรั่ง][ใหม่][MASTER]-Rampage.2018.BluRay.1080p.DTS.x264.mkv-Encode.H.264.1080p. [Master]-[พากย์ไทย บรรยายไทย]



    Rampage_(2018) : แรมเพจ ใหญ่ชนยักษ์
    เรื่องราวของนักวานรวิทยา ดาวิส โอโคเย (ดเวย์น จอห์นสัน) ชายผู้หลบเลี่ยงห่างไกลจากผู้คน เขามีสายสัมพันธ์อันแน่นแฟ้นที่ไม่มีวันสั่นคลอนกับ จอร์จ กอริล่า
    หลังเงินที่เฉลียวฉลาดยิ่งกว่ากอริลล่าทั่วไปที่เขาเ ป็นผู้เลี้ยงดูมาตั้งแต่มันเกิด แต่แล้วยีนส์แห่งความโหดร้ายในร่างมันได้เกิดการกลาย พันธุ์
    และเปลี่ยนกอริลล่าแสนสุภาพตัวนี้ให้กลายเป็นสิ่งมีช ีวิตที่โหดร้ายตัวใหญ่ยักษ์ ทุกสิ่งเลวร้ายยิ่งขึ้น เมื่อได้มีการค้นพบว่า แท้จริงแล้วยังมีสัตว์อื่นอีกมายมายที่เกิดการกลายพั นธุ์เช่นเดียวกัน
    พวกมันกลายเป็นนักล่าที่อยู่เหนือทุกชีวิตและมุ่งหน้ าสู่อเมริกาเหนือ ทำลายทุกสิ่งที่ขวางทางของพวกมัน กลุ่มของโอโคเยและนักพันธุวิศวกรรมผู้ไม่น่าเชื่อถือ ต้องปกป้องแอนติโดส
    ต่อสู้กับอุปสรรคขวากหนามและปัญหามากมายที่มาเยือนอย ่างไม่ซ้ำ ไม่เพียงเพื่อหยุดยั้งจุดจบของโลก ทว่าเพื่อช่วยสิ่งมีชีวิตที่น่าหวาดหวั่น ที่ครั้งหนึ่งเคยเป็นเพื่อนของเขาเอง!!!

    -Rampage_(2018) : แรมเพจ ใหญ่ชนยักษ์
    นำแสดงโดย ดเวย์น จอห์นสัน,นาโอมี แฮร์ริส, มาลิน เอเคอร์แมน, เจค ลาซี, โจ แมนเกนเนโล่, เจฟฟรีย์ ดีน มอร์แกน
    ร่วมด้วย พี.เจ. เบิร์น, มาร์ลีย์ เชลตัน, บรีแอน ฮิลล์, แจ็ค เควด,แม็ตต์ เจอรัลด์, เจสัน ไลเลส, วิล ยุน ลี เป็นต้น
    กำกับการแสดงโดย แบรด เพย์ตัน.

    General
    Unique ID : 82735851333093861053034165929164176079 (0x3E3E58693ACCCFB35BB41F80B4147ACF)
    Complete name : E:mix downloadRampage.2018.BluRay.1080p.DTS.x264.mkv
    Format : Matroska
    Format version : Version 4 / Version 2
    File size : 8.65 GiB
    Duration : 1h 47mn
    Overall bit rate : 11.5 Mbps
    Encoded date : UTC 2018-07-11 01:02:18
    Writing application : mkvmerge v19.0.0 ( Brave Captain ) 64-bit
    Writing library : libebml v1.3.5 + libmatroska v1.4.8
    Cover : Yes
    Attachments : small_cover.jpg / small_cover_land.jpg / cover.jpg / cover_land.jpg

    Video
    ID : 1
    Format : AVC
    Format/Info : Advanced Video Codec
    Format profile : [email protected]
    Format settings, CABAC : Yes
    Format settings, ReFrames : 5 frames
    Codec ID : V_MPEG4/ISO/AVC
    Duration : 1h 47mn
    Bit rate : 9 571 Kbps
    Width : 1 920 pixels
    Height : 800 pixels
    Display aspect ratio : 2.40:1
    Frame rate mode : Constant
    Frame rate : 23.976 fps
    Color space : YUV
    Chroma subsampling : 4:2:0
    Bit depth : 8 bits
    Scan type : Progressive
    Bits/(Pixel*Frame) : 0.260
    Stream size : 7.17 GiB (83%)
    Title : Rampage.2018.1080p.BluRay.x264.DTS-HD.MA.7.1-FGT
    Writing library : x264 core 155 r2901 7d0ff22
    Encoding settings : cabac=1 / ref=5 / deblock=1:0:0 / analyse=0x3:0x133 / me=umh / subme=7 / psy=1 / psy_rd=1.00:0.00 / mixed_ref=1 / me_range=16 / chroma_me=1 / trellis=1 / 8x8dct=1 / cqm=0 / deadzone=21,11 / fast_pskip=0 / chroma_qp_offset=-2 / threads=25 / lookahead_threads=4 / sliced_threads=0 / nr=0 / decimate=1 / interlaced=0 / bluray_compat=0 / constrained_intra=0 / bframes=3 / b_pyramid=2 / b_adapt=1 / b_bias=0 / direct=1 / weightb=1 / open_gop=0 / weightp=2 / keyint=250 / keyint_min=23 / scenecut=40 / intra_refresh=0 / rc_lookahead=40 / rc=2pass / mbtree=1 / bitrate=9571 / ratetol=1.0 / qcomp=0.60 / qpmin=0 / qpmax=69 / qpstep=4 / cplxblur=20.0 / qblur=0.5 / ip_ratio=1.40 / aq=1:1.00
    Language : English
    Default : Yes
    Forced : No

    Audio #1
    ID : 2
    Format : DTS
    Format/Info : Digital Theater Systems
    Mode : 16
    Format settings, Endianness : Big
    Codec ID : A_DTS
    Duration : 1h 47mn
    Bit rate mode : Constant
    Bit rate : 1 509 Kbps
    Channel(s) : 6 channels
    Channel positions : Front: L C R, Side: L R, LFE
    Sampling rate : 48.0 KHz
    Frame rate : 93.750 fps (512 spf)
    Bit depth : 24 bits
    Compression mode : Lossy
    Stream size : 1.13 GiB (13%)
    Title : English / DTS
    Language : English
    Default : Yes
    Forced : Yes

    Audio #2
    ID : 3
    Format : AC-3
    Format/Info : Audio Coding 3
    Mode extension : CM (complete main)
    Format settings, Endianness : Big
    Codec ID : A_AC3
    Duration : 1h 47mn
    Bit rate mode : Constant
    Bit rate : 448 Kbps
    Channel(s) : 6 channels
    Channel positions : Front: L C R, Side: L R, LFE
    Sampling rate : 48.0 KHz
    Frame rate : 31.250 fps (1536 spf)
    Compression mode : Lossy
    Stream size : 344 MiB (4%)
    Title : Thai / Dolby Digital
    Language : Thai
    Default : No
    Forced : No

    Text #1
    ID : 4
    Format : PGS
    Muxing mode : zlib
    Codec ID : S_HDMV/PGS
    Codec ID/Info : Picture based subtitle format used on BDs/HD-DVDs
    Duration : 1h 46mn
    Bit rate : 28.7 Kbps
    Count of elements : 2600
    Stream size : 21.9 MiB (0%)
    Title : Thai / PGS
    Language : Thai
    Default : No
    Forced : Yes

    Text #2
    ID : 5
    Format : VobSub
    Muxing mode : zlib
    Codec ID : S_VOBSUB
    Codec ID/Info : Picture based subtitle format used on DVDs
    Duration : 1h 46mn
    Bit rate : 7 585 bps
    Count of elements : 1300
    Stream size : 5.79 MiB (0%)
    Title : Thai / VobSub
    Language : Thai
    Default : No
    Forced : No

    Text #3
    ID : 6
    Format : UTF-8
    Codec ID : S_TEXT/UTF8
    Codec ID/Info : UTF-8 Plain Text
    Duration : 1h 37mn
    Bit rate : 55 bps
    Count of elements : 1267
    Stream size : 39.4 KiB (0%)
    Title : English-SRT
    Language : English
    Default : Yes
    Forced : No





    Download: cornfile
    http://cornfile.com/1yb7ltd59r7z
    Download: mekafile
    http://www.mekafile.com/dl.php?f=Y170f8bHqnGr

  2. The Following 3 Users Say Thank You to Duckload.us For This Useful Post:

    mettset (07-11-2018), mta28 (07-11-2018), Sazabi (07-12-2018)

  3. #2
    Member
    Join Date
    May 2012
    Location
    Thailand
    Posts
    57
    Thanks
    599
    Thanked 0 Times in 0 Posts
    thank you so much.

  4. #3
    Senior Member
    Join Date
    Jan 2013
    Posts
    570
    Thanks
    570
    Thanked 0 Times in 0 Posts
    ขอบคุณมากครับ

+ Reply to Thread

Thread Information

Users Browsing this Thread

There are currently 1 users browsing this thread. (0 members and 1 guests)

     

Posting Permissions

  • You may not post new threads
  • You may not post replies
  • You may not post attachments
  • You may not edit your posts