+ Reply to Thread
Results 1 to 2 of 2
  1. #1
    Administrators Duckload.us's Avatar
    Join Date
    Dec 2010
    Posts
    90,930
    Thanks
    9
    Thanked 93,891 Times in 45,215 Posts

    Question [ฝรั่ง]-Rampage (2018) : แรมเพจ ใหญ่ชนยักษ์ 1080p BluRay DTS-HD MA + TrueHD 7 1 Atmos Full Bitrate-Remux.H.264.1080p. [Master]-[พากย์ไทย บรรยายไทย]



    -Rampage_(2018) : แรมเพจ ใหญ่ชนยักษ์
    เรื่องราวของนักวานรวิทยา ดาวิส โอโคเย (ดเวย์น จอห์นสัน) ชายผู้หลบเลี่ยงห่างไกลจากผู้คน เขามีสายสัมพันธ์อันแน่นแฟ้นที่ไม่มีวันสั่นคลอนกับ จอร์จ กอริล่า
    หลังเงินที่เฉลียวฉลาดยิ่งกว่ากอริลล่าทั่วไปที่เขาเ ป็นผู้เลี้ยงดูมาตั้งแต่มันเกิด แต่แล้วยีนส์แห่งความโหดร้ายในร่างมันได้เกิดการกลาย พันธุ์
    และเปลี่ยนกอริลล่าแสนสุภาพตัวนี้ให้กลายเป็นสิ่งมีช ีวิตที่โหดร้ายตัวใหญ่ยักษ์ ทุกสิ่งเลวร้ายยิ่งขึ้น เมื่อได้มีการค้นพบว่า แท้จริงแล้วยังมีสัตว์อื่นอีกมายมายที่เกิดการกลายพั นธุ์เช่นเดียวกัน
    พวกมันกลายเป็นนักล่าที่อยู่เหนือทุกชีวิตและมุ่งหน้ าสู่อเมริกาเหนือ ทำลายทุกสิ่งที่ขวางทางของพวกมัน กลุ่มของโอโคเยและนักพันธุวิศวกรรมผู้ไม่น่าเชื่อถือ ต้องปกป้องแอนติโดส
    ต่อสู้กับอุปสรรคขวากหนามและปัญหามากมายที่มาเยือนอย ่างไม่ซ้ำ ไม่เพียงเพื่อหยุดยั้งจุดจบของโลก ทว่าเพื่อช่วยสิ่งมีชีวิตที่น่าหวาดหวั่น ที่ครั้งหนึ่งเคยเป็นเพื่อนของเขาเอง!!!

    -Rampage_(2018) : แรมเพจ ใหญ่ชนยักษ์
    นำแสดงโดย ดเวย์น จอห์นสัน,นาโอมี แฮร์ริส, มาลิน เอเคอร์แมน, เจค ลาซี, โจ แมนเกนเนโล่, เจฟฟรีย์ ดีน มอร์แกน
    ร่วมด้วย พี.เจ. เบิร์น, มาร์ลีย์ เชลตัน, บรีแอน ฮิลล์, แจ็ค เควด,แม็ตต์ เจอรัลด์, เจสัน ไลเลส, วิล ยุน ลี เป็นต้น
    กำกับการแสดงโดย แบรด เพย์ตัน.


    General
    Unique ID : 240159208892224545603729321137581678416 (0xB4ACFB2EC838D4A0023879CF5FE95F50)
    Complete name : F:mix loadRampage_2018_1080p_BluRay_REMUX_AVC_DTS-HD_MA_TrueHD_7_1_Atmos.mkv
    Format : Matroska
    Format version : Version 4 / Version 2
    File size : 24.7 GiB
    Duration : 1h 47mn
    Overall bit rate mode : Variable
    Overall bit rate : 33.0 Mbps
    Movie name : Rampage.2018.1080p.BluRay.REMUX.AVC.DTS-HD.MA.TrueHD.7.1.Atmos-FGT
    Encoded date : UTC 2018-07-11 04:02:07
    Writing application : mkvmerge v21.0.0 ( Tardigrades Will Inherit The Earth ) 64-bit
    Writing library : libebml v1.3.5 + libmatroska v1.4.8
    Cover : Yes
    Attachments : small_cover.jpg / small_cover_land.jpg / cover.jpg / cover_land.jpg

    Video
    ID : 1
    Format : AVC
    Format/Info : Advanced Video Codec
    Format profile : [email protected]
    Format settings, CABAC : Yes
    Format settings, ReFrames : 4 frames
    Codec ID : V_MPEG4/ISO/AVC
    Duration : 1h 47mn
    Bit rate mode : Variable
    Bit rate : 23.7 Mbps
    Maximum bit rate : 28.0 Mbps
    Width : 1 920 pixels
    Height : 1 080 pixels
    Display aspect ratio : 16:9
    Frame rate mode : Constant
    Frame rate : 23.976 (24000/1001) fps
    Color space : YUV
    Chroma subsampling : 4:2:0
    Bit depth : 8 bits
    Scan type : Progressive
    Bits/(Pixel*Frame) : 0.476
    Stream size : 17.7 GiB (72%)
    Title : Rampage.2018.1080p.BluRay.REMUX.AVC.DTS-HD.MA.TrueHD.7.1.Atmos-FGT
    Language : English
    Default : No
    Forced : No

    Audio #1
    ID : 2
    Format : Atmos / TrueHD
    Codec ID : A_TRUEHD
    Duration : 1h 47mn
    Bit rate mode : Variable
    Bit rate : 3 279 Kbps
    Maximum bit rate : 5 205 Kbps
    Channel(s) : Object Based / 8 channels
    Channel positions : Object Based / Front: L C R, Side: L R, Back: L R, LFE
    Sampling rate : / 48.0 KHz
    Frame rate : 1 200.000 fps (40 spf)
    Compression mode : Lossless
    Stream size : 2.46 GiB (10%)
    Title : Rampage.2018.1080p.BluRay.REMUX.AVC.DTS-HD.MA.TrueHD.7.1.Atmos-FGT
    Language : English
    Default : Yes
    Forced : No

    Audio #2
    ID : 3
    Format : DTS
    Format/Info : Digital Theater Systems
    Format profile : MA / Core
    Mode : 16
    Format settings, Endianness : Big
    Codec ID : A_DTS
    Duration : 1h 47mn
    Bit rate mode : Variable / Constant
    Bit rate : 4 013 Kbps / 1 509 Kbps
    Channel(s) : 8 channels / 6 channels
    Channel positions : Front: L C R, Side: L R, Back: L R, LFE / Front: L C R, Side: L R, LFE
    Sampling rate : 48.0 KHz
    Frame rate : 93.750 fps (512 spf)
    Bit depth : 24 bits
    Compression mode : Lossless / Lossy
    Stream size : 3.01 GiB (12%)
    Title : Rampage.2018.1080p.BluRay.REMUX.AVC.DTS-HD.MA.TrueHD.7.1.Atmos-FGT
    Language : English
    Default : No
    Forced : No

    Audio #3
    ID : 4
    Format : DTS
    Format/Info : Digital Theater Systems
    Mode : 16
    Format settings, Endianness : Big
    Codec ID : A_DTS
    Duration : 1h 47mn
    Bit rate mode : Constant
    Bit rate : 1 509 Kbps
    Channel(s) : 6 channels
    Channel positions : Front: L C R, Side: L R, LFE
    Sampling rate : 48.0 KHz
    Frame rate : 93.750 fps (512 spf)
    Bit depth : 24 bits
    Compression mode : Lossy
    Stream size : 1.13 GiB (5%)
    Title : Surround 5.1
    Language : English
    Default : No
    Forced : No

    Audio #4
    ID : 6
    Format : AC-3
    Format/Info : Audio Coding 3
    Mode extension : CM (complete main)
    Format settings, Endianness : Big
    Codec ID : A_AC3
    Duration : 1h 47mn
    Bit rate mode : Constant
    Bit rate : 448 Kbps
    Channel(s) : 6 channels
    Channel positions : Front: L C R, Side: L R, LFE
    Sampling rate : 48.0 KHz
    Frame rate : 31.250 fps (1536 spf)
    Compression mode : Lossy
    Stream size : 344 MiB (1%)
    Title : Thai / Dolby Digital
    Language : Thai
    Default : No
    Forced : No

    Text #1
    ID : 5
    Format : PGS
    Muxing mode : zlib
    Codec ID : S_HDMV/PGS
    Codec ID/Info : Picture based subtitle format used on BDs/HD-DVDs
    Duration : 1h 45mn
    Bit rate : 36.7 Kbps
    Count of elements : 3088
    Stream size : 27.7 MiB (0%)
    Title : English-PGS
    Language : English
    Default : Yes
    Forced : No

    Text #2
    ID : 7
    Format : PGS
    Muxing mode : zlib
    Codec ID : S_HDMV/PGS
    Codec ID/Info : Picture based subtitle format used on BDs/HD-DVDs
    Duration : 1h 46mn
    Bit rate : 28.7 Kbps
    Count of elements : 2600
    Stream size : 21.9 MiB (0%)
    Title : Thai / PGS
    Language : Thai
    Default : No
    Forced : Yes

    Text #3
    ID : 8
    Format : VobSub
    Muxing mode : zlib
    Codec ID : S_VOBSUB
    Codec ID/Info : Picture based subtitle format used on DVDs
    Duration : 1h 46mn
    Bit rate : 7 585 bps
    Count of elements : 1300
    Stream size : 5.79 MiB (0%)
    Title : Thai / VobSub
    Language : Thai
    Default : No
    Forced : No

    Menu
    00:00:00.000 : en:Chapter 01
    00:12:58.527 : en:Chapter 02
    00:19:56.278 : en:Chapter 03
    00:29:53.291 : en:Chapter 04
    00:40:35.391 : en:Chapter 05
    00:49:10.906 : en:Chapter 06
    01:02:38.171 : en:Chapter 07
    01:10:37.650 : en:Chapter 08
    01:20:10.472 : en:Chapter 09
    01:29:23.608 : en:Chapter 10
    01:39:43.060 : en:Chapter 11






    Download: cornfile
    http://cornfile.com/n91inaccut9v
    Download: mekafile
    http://www.mekafile.com/dl.php?f=mUa661bHqxfK

  2. The Following 2 Users Say Thank You to Duckload.us For This Useful Post:

    n_ton (07-12-2018), prasert.pp (07-12-2018)

  3. #2
    Senior Member
    Join Date
    Mar 2013
    Posts
    1,238
    Thanks
    1,259
    Thanked 0 Times in 0 Posts
    ขอบคุณครับ

+ Reply to Thread

Thread Information

Users Browsing this Thread

There are currently 1 users browsing this thread. (0 members and 1 guests)

     

Posting Permissions

  • You may not post new threads
  • You may not post replies
  • You may not post attachments
  • You may not edit your posts