+ Reply to Thread
Results 1 to 2 of 2
  1. #1
    Administrators Duckload.us's Avatar
    Join Date
    Dec 2010
    Posts
    94,116
    Thanks
    9
    Thanked 96,587 Times in 46,448 Posts

    Question [ฝรั่ง]-[**มาใหม่ร้อนๆ!!! 4K 2160P**] • [Netflix] • THE RAIN (2018) เดอะ เรน [2160p.SDR.NF.WEBRip.DD5.1.x265] • [เสียงอังกฤษ 5.1] • [บรรยายไทย + อังกฤษ + ซับไทย Master From Netflix คมชัด ]-Encode.H.265.2160p. [Modified]-[Soundtrack บรรยายไทย]











    THE RAIN (2018) เดอะ เรน


    แสดงนำโดย: แอลบา ออกุสต์, ลูคัส ลิงกอร์ด ทึนเนเซน, มิคเคล โบ โฟลสการ์ด


    • • •

    2160p.SDR.NF.WEBRip.DD5.1.x265


    ตอน เดอะ เรน

    ปีเปิดตัว: 2018

    หกปีหลังจากไวรัสร้ายคร่าชีวิตประชากรของสแกนดิเนเวี ยไปเกือบหมด
    สองพี่น้องได้เข้าร่วมกับกลุ่มผู้รอดชีวิตวัยรุ่นคนอ ื่นๆ เพื่อหาทางเอาชีวิตรอดและ...
    หาคำตอบกับสิ่งที่เกิดขึ้น

    1. อย่าออกข้างนอก 47 นาที
    ไวรัสมฤตยูที่แพร่กระจายผ่านสายฝนบีบให้สองพี่น้องซิ โมนกับราสมุสต้องหลบภัยอยู่ในบังเกอร์ใต้ดิน และทำให้ทั้งคู่ต้องแยกจากพ่อที่เป็นนักวิทยาศาสตร์

    2. อยู่รวมกัน 37 นาที
    หลังจากอยู่อย่างโดดเดี่ยวมาหกปี ซิโมนกับราสมุสก็ได้พบกับผู้รอดชีวิตคนอื่นๆ และเพื่อที่จะเอาชีวิตรอด ซิโมนต้องพิสูจน์ให้เห็นว่าตัวเธอเองมีประโยชน์ต่อกล ุ่ม

    3. อย่าไปในเมือง 37 นาที
    ซิโมนกับสมาชิกคนอื่นๆ วางแผนที่จะเดินทางไปยังสำนักงานใหญ่ของอพอลลอนในสวี เดน แต่การเดินทางผ่านไปยังโคเปนเฮเกนของพวกเขาเต็มไปด้ว ยอันตราย

    4. อย่าไว้ใจใคร 38 นาที
    มาร์ตินกับบีทริซเกิดความรู้สึกอิจฉา ขณะเดียวกันซิโมนและราสมุสได้พบหมอคนหนึ่งที่มีความเ ชื่อมโยงกับพ่อของตัวเอง ส่วนความทรงจำในอดีตตามมาหลอกหลอนแจน

    5. มีศรัทธา 49 นาที
    สมาชิกหลงทางในป่าและได้พบกับคฤหาสน์หลังหนึ่งเข้าโด ยบังเอิญ ผู้อาศัยในคฤหาสน์ได้เชิญให้พวกเขาพักค้างแรมที่นั่น และลีอาก็ได้ผูกสัมพันธ์กับหญิงคนหนึ่งในคฤหาสน์

    6. รักษาเพื่อนไว้ใกล้ตัว 41 นาที
    ราสมุสกับบีทริซสนิทสนมกันมากขึ้นเมื่อได้ใช้เวลาอยู ่ด้วยกันตามลำพัง ขณะเดียวกันคนอื่นๆ ค้นพบบังเกอร์แห่งใหม่รวมทั้งความลับอันเลวร้ายที่ถู กเก็บงำไว้ ณ ที่แห่งนั้น

    7. อย่าพูดกับคนแปลกหน้า 36 นาที
    กลุ่มคนแปลกหน้าติดอาวุธพยายามที่จะเค้นข้อมูลจากแพท ริก และหลังการค้นพบอันน่าสะพรึงกลัว ราสมุสก็เริ่มที่จะปะติดปะต่อเรื่องราวต่างๆ ได้

    8. เชื่อในสัญชาตญาณตัวเอง 40 นาที
    สมาชิกในกลุ่มเดินทางมาถึงสำนักงานใหญ่ของอพอลลอน และที่นั่นซิโมนได้ค้นพบความจริงที่น่าตกใจเกี่ยวกับ ไวรัสร้าย และที่เกี่ยวข้องกับพ่อของเธอ รวมทั้งราสมุสด้วย





    ตัวอย่าง ตอน...อยู่รวมกัน 37 นาที



    Format : Matroska
    Format version : Version 2
    File size : 5.95 GiB
    Duration : 37 min 22 s
    Overall bit rate : 22.8 Mb/s
    Movie name : [email protected] wit9730

    Video
    ID : 1
    Format : HEVC
    Format/Info : High Efficiency Video Coding
    Format profile : Main [email protected]@Main
    Codec ID : V_MPEGH/ISO/HEVC
    Duration : 37 min 22 s
    Bit rate : 21.2 Mb/s
    Width : 3 840 pixels
    Height : 1 920 pixels
    Display aspect ratio : 2.000
    Frame rate mode : Constant
    Frame rate : 25.000 FPS
    Color space : YUV
    Chroma subsampling : 4:2:0
    Bit depth : 10 bits
    Bits/(Pixel*Frame) : 0.115
    Stream size : 5.53 GiB (93%)
    Title : [email protected] wit9730
    Writing library : x265 2.8+19-bcdc610cf5f0:[Windows][MSVC 1914][64 bit] 10bit
    Encoding settings : cpuid=1111039 / frame-threads=3 / numa-pools=8 / wpp / no-pmode / no-pme / no-psnr / no-ssim / log-level=2 / input-csp=1 / input-res=3840x1920 / interlace=0 / total-frames=56057 / level-idc=0 / high-tier=1 / uhd-bd=0 / ref=3 / no-allow-non-conformance / repeat-headers / annexb / no-aud / no-hrd / info / hash=0 / no-temporal-layers / open-gop / min-keyint=25 / keyint=250 / gop-lookahead=0 / bframes=4 / b-adapt=2 / b-pyramid / bframe-bias=0 / rc-lookahead=20 / lookahead-slices=8 / scenecut=40 / radl=0 / no-intra-refresh / ctu=64 / min-cu-size=8 / no-rect / no-amp / max-tu-size=32 / tu-inter-depth=1 / tu-intra-depth=1 / limit-tu=0 / rdoq-level=0 / dynamic-rd=0.00 / no-ssim-rd / signhide / no-tskip / nr-intra=0 / nr-inter=0 / no-constrained-intra / strong-intra-smoothing / max-merge=2 / limit-refs=3 / no-limit-modes / me=1 / subme=2 / merange=57 / temporal-mvp / weightp / no-weightb / no-analyze-src-pics / deblock=0:0 / sao / no-sao-non-deblock / rd=3 / no-early-skip / rskip / no-fast-intra / no-tskip-fast / no-cu-lossless / no-b-intra / no-splitrd-skip / rdpenalty=0 / psy-rd=2.00 / psy-rdoq=0.00 / no-rd-refine / no-lossless / cbqpoffs=0 / crqpoffs=0 / rc=crf / crf=16.0 / qcomp=0.60 / qpstep=4 / stats-write=0 / stats-read=0 / ipratio=1.40 / pbratio=1.30 / aq-mode=1 / aq-strength=1.00 / cutree / zone-count=0 / no-strict-cbr / qg-size=32 / no-rc-grain / qpmax=69 / qpmin=0 / no-const-vbv / sar=0 / overscan=0 / videoformat=5 / range=0 / colorprim=1 / transfer=1 / colormatrix=1 / chromaloc=0 / display-window=0 / max-cll=0,0 / min-luma=0 / max-luma=1023 / log2-max-poc-lsb=8 / vui-timing-info / vui-hrd-info / slices=1 / no-opt-qp-pps / no-opt-ref-list-length-pps / no-multi-pass-opt-rps / scenecut-bias=0.05 / no-opt-cu-delta-qp / no-aq-motion / no-hdr / no-hdr-opt / no-dhdr10-opt / no-idr-recovery-sei / analysis-reuse-level=5 / scale-factor=0 / refine-intra=0 / refine-inter=0 / refine-mv=0 / no-limit-sao / ctu-info=0 / no-lowpass-dct / refine-mv-type=0 / copy-pic=1 / max-ausize-factor=1.0 / no-dynamic-refine / no-single-sei
    Default : Yes
    Forced : No
    Color range : Limited
    Color primaries : BT.709
    Transfer characteristics : BT.709
    Matrix coefficients : BT.709

    Audio #1
    ID : 2
    Format : AC-3
    Format/Info : Audio Coding 3
    Muxing mode : Header stripping
    Codec ID : A_AC3
    Duration : 37 min 22 s
    Bit rate mode : Constant
    Bit rate : 384 kb/s
    Channel(s) : 6 channels
    Channel positions : Front: L C R, Side: L R, LFE
    Sampling rate : 48.0 kHz
    Frame rate : 31.250 FPS (1536 SPF)
    Bit depth : 16 bits
    Compression mode : Lossy
    Delay relative to video : 14 ms
    Stream size : 103 MiB (2%)
    Title : English 5.1
    Language : English
    Service kind : Complete Main
    Default : Yes
    Forced : No

    Audio #2
    ID : 3
    Format : AC-3
    Format/Info : Audio Coding 3
    Muxing mode : Header stripping
    Codec ID : A_AC3
    Duration : 37 min 22 s
    Bit rate mode : Constant
    Bit rate : 384 kb/s
    Channel(s) : 6 channels
    Channel positions : Front: L C R, Side: L R, LFE
    Sampling rate : 48.0 kHz
    Frame rate : 31.250 FPS (1536 SPF)
    Bit depth : 16 bits
    Compression mode : Lossy
    Delay relative to video : 14 ms
    Stream size : 103 MiB (2%)
    Title : French 5.1
    Language : French
    Service kind : Complete Main
    Default : No
    Forced : No

    Audio #3
    ID : 4
    Format : AC-3
    Format/Info : Audio Coding 3
    Muxing mode : Header stripping
    Codec ID : A_AC3
    Duration : 37 min 22 s
    Bit rate mode : Constant
    Bit rate : 384 kb/s
    Channel(s) : 6 channels
    Channel positions : Front: L C R, Side: L R, LFE
    Sampling rate : 48.0 kHz
    Frame rate : 31.250 FPS (1536 SPF)
    Bit depth : 16 bits
    Compression mode : Lossy
    Delay relative to video : 14 ms
    Stream size : 103 MiB (2%)
    Title : Danish 5.1
    Language : Danish
    Service kind : Complete Main
    Default : No
    Forced : No

    Text #1
    ID : 5
    Format : UTF-8
    Codec ID : S_TEXT/UTF8
    Codec ID/Info : UTF-8 Plain Text
    Title : English
    Language : English
    Default : No
    Forced : No

    Text #2
    ID : 6
    Format : PGS
    Muxing mode : zlib
    Codec ID : S_HDMV/PGS
    Codec ID/Info : Picture based subtitle format used on BDs/HD-DVDs
    Title : Thai PGS
    Language : Thai
    Default : No
    Forced : No



































    Download: cornfile
    [email protected] wit9730.mkv - 8.2 GB
    [email protected] wit9730.mkv - 6.0 GB
    [email protected] wit9730.mkv - 5.7 GB
    [email protected] wit9730.mkv - 5.8 GB
    [email protected] wit9730.mkv - 7.3 GB
    [email protected] wit9730.mkv - 6.5 GB
    [email protected] wit9730.mkv - 5.7 GB
    The.Rain.S01E08.FiNAL.2160p.SDR.NF.WEBRip.DD5.1.x2 [email protected] - 7.0 GB

    Download: mekafile
    1
    http://www.mekafile.com/dl.php?f=RP6f5dbHD2Bl
    2
    http://www.mekafile.com/dl.php?f=0O06d5bHD0vC
    3
    http://www.mekafile.com/dl.php?f=Eh2ee9bHD2tk
    4
    http://www.mekafile.com/dl.php?f=z862d3bHCZp5
    5
    http://www.mekafile.com/dl.php?f=dQ3041bHD1vB
    6
    http://www.mekafile.com/dl.php?f=ix55e7bHD0bD
    7
    http://www.mekafile.com/dl.php?f=AM0d61bHCZCb
    8
    http://www.mekafile.com/dl.php?f=iP06bcbHD0ib

  2. #2
    Senior Member
    Join Date
    Nov 2012
    Posts
    347
    Thanks
    0
    Thanked 0 Times in 0 Posts
    ขอบคุณครับ

+ Reply to Thread

Thread Information

Users Browsing this Thread

There are currently 1 users browsing this thread. (0 members and 1 guests)

     

Posting Permissions

  • You may not post new threads
  • You may not post replies
  • You may not post attachments
  • You may not edit your posts