ʹյԡ¸Թ͡ŧѳҪҡ ÷ǹ١ͧҶ١ҵҧ˴ Ѻҵѧ仾ǾѹѺἹ֡Ѻ͹ ͹ͧ


Format : Matroska
Format version : Version 4 / Version 2
File size : 12.5 GiB
Duration : 54 min 14 s
Overall bit rate : 33.1 Mb/s
Encoded date : UTC 2018-03-25 01:23:26
Writing application : mkvmerge v21.0.0 ( Tardigrades Will Inherit The Earth ) 64-bit
Writing library : libebml v1.3.5 + libmatroska v1.4.8

Video
ID : 1
Format : HEVC
Format/Info : High Efficiency Video Coding
Format profile : Main [email protected]@Main
Codec ID : V_MPEGH/ISO/HEVC
Duration : 54 min 11 s
Bit rate : 32.7 Mb/s
Width : 3 840 pixels
Height : 2 160 pixels
Display aspect ratio : 16:9
Frame rate mode : Constant
Frame rate : 23.976 (24000/1001) FPS
Color space : YUV
Chroma subsampling : 4:2:0
Bit depth : 10 bits
Bits/(Pixel*Frame) : 0.164
Stream size : 12.4 GiB (99%)
Writing library : x265 2.7+15-b9f5b5d7bf95:[Windows][GCC 6.3.0][64 bit] 10bit
Encoding settings : cpuid=1173503 / frame-threads=4 / numa-pools=28,0 / wpp / no-pmode / no-pme / no-psnr / no-ssim / log-level=2 / input-csp=1 / input-res=3840x2160 / interlace=0 / total-frames=77957 / level-idc=0 / high-tier=1 / uhd-bd=0 / ref=5 / no-allow-non-conformance / repeat-headers / annexb / no-aud / no-hrd / info / hash=0 / no-temporal-layers / open-gop / min-keyint=23 / keyint=250 / gop-lookahead=0 / bframes=8 / b-adapt=2 / b-pyramid / bframe-bias=0 / rc-lookahead=40 / lookahead-slices=0 / scenecut=40 / radl=0 / no-intra-refresh / ctu=64 / min-cu-size=8 / rect / amp / max-tu-size=32 / tu-inter-depth=3 / tu-intra-depth=3 / limit-tu=4 / rdoq-level=2 / dynamic-rd=0.00 / no-ssim-rd / signhide / no-tskip / nr-intra=0 / nr-inter=0 / no-constrained-intra / strong-intra-smoothing / max-merge=4 / limit-refs=1 / limit-modes / me=3 / subme=5 / merange=57 / temporal-mvp / weightp / weightb / no-analyze-src-pics / deblock=-3:-3 / sao / no-sao-non-deblock / rd=6 / no-early-skip / rskip / no-fast-intra / no-tskip-fast / no-cu-lossless / b-intra / no-splitrd-skip / rdpenalty=0 / psy-rd=2.00 / psy-rdoq=1.00 / no-rd-refine / no-lossless / cbqpoffs=0 / crqpoffs=0 / rc=crf / crf=18.0 / qcomp=0.80 / qpstep=4 / stats-write=0 / stats-read=0 / ipratio=1.40 / pbratio=1.30 / aq-mode=3 / aq-strength=1.00 / cutree / zone-count=0 / no-strict-cbr / qg-size=16 / no-rc-grain / qpmax=69 / qpmin=0 / no-const-vbv / sar=0 / overscan=0 / videoformat=5 / range=0 / colorprim=9 / transfer=16 / colormatrix=9 / chromaloc=0 / display-window=0 / master-display=G(13250,34500)B(7500,3000)R(34000,16000)WP (15635,16450)L(40000000,50) / max-cll=10000,586 / min-luma=0 / max-luma=1023 / log2-max-poc-lsb=8 / vui-timing-info / vui-hrd-info / slices=1 / no-opt-qp-pps / no-opt-ref-list-length-pps / no-multi-pass-opt-rps / scenecut-bias=0.05 / no-opt-cu-delta-qp / no-aq-motion / hdr / hdr-opt / no-dhdr10-opt / no-idr-recovery-sei / analysis-reuse-level=5 / scale-factor=0 / refine-intra=0 / refine-inter=0 / refine-mv=0 / no-limit-sao / ctu-info=0 / no-lowpass-dct / refine-mv-type=0 / copy-pic=1 / max-ausize-factor=1.0 / no-dynamic-refine
Default : Yes
Forced : No
Color range : Limited
Color primaries : BT.2020
Transfer characteristics : SMPTE ST 2084
Matrix coefficients : BT.2020 non-constant
Mastering display color primar : R: x=0.680000 y=0.320000, G: x=0.265000 y=0.690000, B: x=0.150000 y=0.060000, White point: x=0.312700 y=0.329000
Mastering display luminance : min: 0.0050 cd/m2, max: 4000.0000 cd/m2
Maximum Content Light Level : 10000 cd/m2
Maximum Frame-Average Light Le : 586 cd/m2

Audio
ID : 2
Format : E-AC-3
Format/Info : Enhanced Audio Coding 3
Format profile : E-AC-3+Atmos / E-AC-3
Format settings, Endianness : Big
Codec ID : A_EAC3
Duration : 54 min 14 s
Bit rate mode : Constant
Bit rate : 448 kb/s
Channel(s) : 15 objects / 6 channels
Channel positions : 15 objects / Front: L C R, Side: L R, LFE
Sampling rate : 48.0 kHz
Frame rate : 187.500 FPS (256 SPF)
Compression mode : Lossy
Stream size : 174 MiB (1%)
Language : English
Service kind : Complete Main
Default : Yes
Forced : No

Text #1
ID : 3
Format : UTF-8
Codec ID : S_TEXT/UTF8
Codec ID/Info : UTF-8 Plain Text
Duration : 51 min 54 s
Bit rate : 54 b/s
Count of elements : 569
Stream size : 20.8 KiB (0%)
Language : English
Default : No
Forced : No

Text #2
ID : 4
Format : UTF-8
Codec ID : S_TEXT/UTF8
Codec ID/Info : UTF-8 Plain Text
Duration : 52 min 34 s
Bit rate : 61 b/s
Count of elements : 643
Stream size : 23.5 KiB (0%)
Title : SDH
Language : English
Default : Yes
Forced : No

Text #3
ID : 5
Format : UTF-8
Codec ID : S_TEXT/UTF8
Codec ID/Info : UTF-8 Plain Text
Duration : 51 min 54 s
Bit rate : 93 b/s
Count of elements : 544
Stream size : 35.5 KiB (0%)
Language : Arabic
Default : No
Forced : No

Text #4
ID : 6
Format : UTF-8
Codec ID : S_TEXT/UTF8
Codec ID/Info : UTF-8 Plain Text
Duration : 51 min 52 s
Bit rate : 84 b/s
Count of elements : 572
Stream size : 31.9 KiB (0%)
Language : Bulgarian
Default : No
Forced : No

Text #5
ID : 7
Format : UTF-8
Codec ID : S_TEXT/UTF8
Codec ID/Info : UTF-8 Plain Text
Duration : 51 min 45 s
Bit rate : 50 b/s
Count of elements : 526
Stream size : 19.0 KiB (0%)
Language : Danish
Default : No
Forced : No

Text #6
ID : 8
Format : UTF-8
Codec ID : S_TEXT/UTF8
Codec ID/Info : UTF-8 Plain Text
Duration : 51 min 46 s
Bit rate : 54 b/s
Count of elements : 533
Stream size : 20.7 KiB (0%)
Language : German
Default : No
Forced : No

Text #7
ID : 9
Format : UTF-8
Codec ID : S_TEXT/UTF8
Codec ID/Info : UTF-8 Plain Text
Duration : 51 min 54 s
Bit rate : 93 b/s
Count of elements : 538
Stream size : 35.4 KiB (0%)
Language : Greek
Default : No
Forced : No

Text #8
ID : 10
Format : UTF-8
Codec ID : S_TEXT/UTF8
Codec ID/Info : UTF-8 Plain Text
Duration : 51 min 54 s
Bit rate : 50 b/s
Count of elements : 542
Stream size : 19.0 KiB (0%)
Language : Spanish
Default : No
Forced : No

Text #9
ID : 11
Format : UTF-8
Codec ID : S_TEXT/UTF8
Codec ID/Info : UTF-8 Plain Text
Duration : 51 min 54 s
Bit rate : 52 b/s
Count of elements : 541
Stream size : 20.1 KiB (0%)
Title : European
Language : Spanish
Default : No
Forced : No

Text #10
ID : 12
Format : UTF-8
Codec ID : S_TEXT/UTF8
Codec ID/Info : UTF-8 Plain Text
Duration : 51 min 45 s
Bit rate : 47 b/s
Count of elements : 484
Stream size : 18.1 KiB (0%)
Language : Finnish
Default : No
Forced : No

Text #11
ID : 13
Format : UTF-8
Codec ID : S_TEXT/UTF8
Codec ID/Info : UTF-8 Plain Text
Duration : 51 min 46 s
Bit rate : 53 b/s
Count of elements : 537
Stream size : 20.4 KiB (0%)
Language : French
Default : No
Forced : No

Text #12
ID : 14
Format : UTF-8
Codec ID : S_TEXT/UTF8
Codec ID/Info : UTF-8 Plain Text
Duration : 51 min 54 s
Bit rate : 91 b/s
Count of elements : 543
Stream size : 34.8 KiB (0%)
Language : Hebrew
Default : No
Forced : No

Text #13
ID : 15
Format : UTF-8
Codec ID : S_TEXT/UTF8
Codec ID/Info : UTF-8 Plain Text
Duration : 51 min 52 s
Bit rate : 56 b/s
Count of elements : 571
Stream size : 21.4 KiB (0%)
Language : Indonesian
Default : No
Forced : No

Text #14
ID : 16
Format : UTF-8
Codec ID : S_TEXT/UTF8
Codec ID/Info : UTF-8 Plain Text
Duration : 51 min 54 s
Bit rate : 52 b/s
Count of elements : 528
Stream size : 19.8 KiB (0%)
Language : Italian
Default : No
Forced : No

Text #15
ID : 17
Format : UTF-8
Codec ID : S_TEXT/UTF8
Codec ID/Info : UTF-8 Plain Text
Duration : 51 min 54 s
Bit rate : 41 b/s
Count of elements : 549
Stream size : 15.9 KiB (0%)
Language : Japanese
Default : No
Forced : No

Text #16
ID : 18
Format : UTF-8
Codec ID : S_TEXT/UTF8
Codec ID/Info : UTF-8 Plain Text
Duration : 51 min 54 s
Bit rate : 53 b/s
Count of elements : 543
Stream size : 20.2 KiB (0%)
Language : Korean
Default : No
Forced : No

Text #17
ID : 19
Format : UTF-8
Codec ID : S_TEXT/UTF8
Codec ID/Info : UTF-8 Plain Text
Duration : 51 min 54 s
Bit rate : 49 b/s
Count of elements : 536
Stream size : 18.9 KiB (0%)
Language : Norwegian Bokmal
Default : No
Forced : No

Text #18
ID : 20
Format : UTF-8
Codec ID : S_TEXT/UTF8
Codec ID/Info : UTF-8 Plain Text
Duration : 51 min 45 s
Bit rate : 46 b/s
Count of elements : 465
Stream size : 17.8 KiB (0%)
Language : Dutch
Default : No
Forced : No

Text #19
ID : 21
Format : UTF-8
Codec ID : S_TEXT/UTF8
Codec ID/Info : UTF-8 Plain Text
Duration : 51 min 54 s
Bit rate : 46 b/s
Count of elements : 518
Stream size : 17.6 KiB (0%)
Language : Polish
Default : No
Forced : No

Text #20
ID : 22
Format : UTF-8
Codec ID : S_TEXT/UTF8
Codec ID/Info : UTF-8 Plain Text
Duration : 51 min 54 s
Bit rate : 51 b/s
Count of elements : 538
Stream size : 19.6 KiB (0%)
Language : Portuguese
Default : No
Forced : No

Text #21
ID : 23
Format : UTF-8
Codec ID : S_TEXT/UTF8
Codec ID/Info : UTF-8 Plain Text
Duration : 51 min 45 s
Bit rate : 51 b/s
Count of elements : 542
Stream size : 19.4 KiB (0%)
Title : Brazilian
Language : Portuguese
Default : No
Forced : No

Text #22
ID : 24
Format : UTF-8
Codec ID : S_TEXT/UTF8
Codec ID/Info : UTF-8 Plain Text
Duration : 51 min 54 s
Bit rate : 49 b/s
Count of elements : 542
Stream size : 18.7 KiB (0%)
Language : Romanian
Default : No
Forced : No

Text #23
ID : 25
Format : UTF-8
Codec ID : S_TEXT/UTF8
Codec ID/Info : UTF-8 Plain Text
Duration : 51 min 54 s
Bit rate : 48 b/s
Count of elements : 530
Stream size : 18.6 KiB (0%)
Language : Swedish
Default : No
Forced : No

Text #24
ID : 26
Format : UTF-8
Codec ID : S_TEXT/UTF8
Codec ID/Info : UTF-8 Plain Text
Duration : 51 min 54 s
Bit rate : 127 b/s
Count of elements : 543
Stream size : 48.4 KiB (0%)
Language : Thai
Default : No
Forced : No

Text #25
ID : 27
Format : UTF-8
Codec ID : S_TEXT/UTF8
Codec ID/Info : UTF-8 Plain Text
Duration : 51 min 54 s
Bit rate : 52 b/s
Count of elements : 533
Stream size : 20.1 KiB (0%)
Language : Turkish
Default : No
Forced : No

Text #26
ID : 28
Format : UTF-8
Codec ID : S_TEXT/UTF8
Codec ID/Info : UTF-8 Plain Text
Duration : 51 min 54 s
Bit rate : 67 b/s
Count of elements : 542
Stream size : 25.6 KiB (0%)
Language : Vietnamese
Default : No
Forced : No

Text #27
ID : 29
Format : UTF-8
Codec ID : S_TEXT/UTF8
Codec ID/Info : UTF-8 Plain Text
Duration : 51 min 54 s
Bit rate : 47 b/s
Count of elements : 542
Stream size : 18.2 KiB (0%)
Title : Simplified
Language : Chinese
Default : No
Forced : No

Text #28
ID : 30
Format : UTF-8
Codec ID : S_TEXT/UTF8
Codec ID/Info : UTF-8 Plain Text
Duration : 51 min 54 s
Bit rate : 45 b/s
Count of elements : 542
Stream size : 17.3 KiB (0%)
Title : Traditional
Language : Chinese
Default : No
Forced : No



Text #24
ID : 26
Format : UTF-8
Codec ID : S_TEXT/UTF8
Codec ID/Info : UTF-8 Plain Text
Duration : 51 min 54 s
Bit rate : 127 b/s
Count of elements : 543
Stream size : 48.4 KiB (0%)
Language : Thai
Default : No
Forced : No




Download: cornfile
Marvel's The Punisher S01E01 3AM 2160p HDR Netflix WEBRip DD+ Atmos 5.1 x265-TrollUHD.mkv - 11.6 GB
Marvel's The Punisher S01E02 Two Dead Men 2160p HDR Netflix WEBRip DD+ Atmos 5.1 x265-TrollUHD.mkv - 13.1 GB
Marvel's The Punisher S01E03 Kandahar 2160p HDR Netflix WEBRip DD+ Atmos 5.1 x265-TrollUHD.mkv - 11.6 GB
Marvel's The Punisher S01E04 Resupply 2160p HDR Netflix WEBRip DD+ Atmos 5.1 x265-TrollUHD.mkv - 10.1 GB
Marvel's The Punisher S01E05 Gunner 2160p HDR Netflix WEBRip DD+ Atmos 5.1 x265-TrollUHD.mkv - 12.5 GB
Marvel's The Punisher S01E06 The Judas Goat 2160p HDR Netflix WEBRip DD+ Atmos 5.1 x265-TrollUHD.mkv - 12.1 GB
Marvel's The Punisher S01E07 Crosshairs 2160p HDR Netflix WEBRip DD+ Atmos 5.1 x265-TrollUHD.mkv - 10.0 GB
Marvel's The Punisher S01E08 Cold Steel 2160p HDR Netflix WEBRip DD+ Atmos 5.1 x265-TrollUHD.mkv - 11.4 GB
Marvel's The Punisher S01E09 Front Toward Enemy 2160p HDR Netflix WEBRip DD+ Atmos 5.1 x265-TrollUHD.mkv - 12.9 GB
Marvel's The Punisher S01E10 Virtue of the Vicious 2160p HDR Netflix WEBRip DD+ Atmos 5.1 x265-TrollUHD.mkv - 11.5 GB
Marvel's The Punisher S01E11 Danger Close 2160p HDR Netflix WEBRip DD+ Atmos 5.1 x265-TrollUHD.mkv - 11.5 GB
Marvel's The Punisher S01E12 Home 2160p HDR Netflix WEBRip DD+ Atmos 5.1 x265-TrollUHD.mkv - 10.9 GB
Marvel's The Punisher S01E13 Memento Mori 2160p HDR Netflix WEBRip DD+ Atmos 5.1 x265-TrollUHD.mkv - 12.7 GB

Download: mekafile
1
http://www.mekafile.com/dl.php?f=006064bHNa8f
2
http://www.mekafile.com/dl.php?f=q2697cbHN9Xi
3
http://www.mekafile.com/dl.php?f=nvc262bHN9An
4
http://www.mekafile.com/dl.php?f=8517ccbHN9N1
5
http://www.mekafile.com/dl.php?f=5w7172bHNi6L
6
http://www.mekafile.com/dl.php?f=Ize285bHNiFx
7
http://www.mekafile.com/dl.php?f=2K391dbHNivn
8
http://www.mekafile.com/dl.php?f=kZ33b0bHNijK
9
http://www.mekafile.com/dl.php?f=RWea74bHPwZM
10
http://www.mekafile.com/dl.php?f=Mk0e6dbHPyoB
11
http://www.mekafile.com/dl.php?f=8j9294bHPxcZ
12
http://www.mekafile.com/dl.php?f=Uqfa51bHPxDp
13
http://www.mekafile.com/dl.php?f=55eec8bHPxS5