เรื่องย่อ : The Avengers (2012) ดิ อเวนเจอร์ส
โลกถูกคุกคามด้วยภัยร้ายจากโลกอื่นอันเนื่องมาจากควา มอาฆาตของโลกิ (ทอม ฮิดเดิลสตัน) เทพตกสวรรค์จากดินแดนแอสการ์ด นิค ฟิวรี่ (แซมมวล แอล. แจ็คสัน) จึงระดมเหล่าซูเปอร์ฮีโร่ทั้งหลายมารวมพลกันสู้ ซึ่งได้แก่ไอร์ออนแมน (โรเบิร์ต ดาวนี่ย์ จูเนียร์), กัปตันอเมริกา (คริส เอแวนส์), ธอร์ (คริส เฮมส์เวิร์ธ), บรูซ แบนเนอร์ หรือฮัลค์ (มาร์ค รัฟฟาโล) พร้อมด้วยมือสังหารประจำหน่วยชีลด์อย่าง แบล็ค วิโดว์ (สการ์เลต โจแฮนสัน) และ ฮอล์คอาย (เจเรมี เรนเนอร์) มารวมเป็นกลุ่ม The Avengers เข้ามาช่วยพิทักษ์โลก!!!


Format : Matroska
Format version : Version 4 / Version 2
File size : 10.6 GiB
Duration : 2 h 22 min
Overall bit rate : 10.6 Mb/s
Movie name : The.Avengers.2012.1080p.BluRay.x264
Encoded date : UTC 2018-08-06 05:26:58
Writing application : mkvmerge v9.3.1 ( Mask Machine ) 32bit
Writing library : libebml v1.3.4 + libmatroska v1.4.5

Video
ID : 1
Format : AVC
Format/Info : Advanced Video Codec
Format profile : [email protected]
Format settings : CABAC / 4 Ref Frames
Format settings, CABAC : Yes
Format settings, ReFrames : 4 frames
Codec ID : V_MPEG4/ISO/AVC
Duration : 2 h 22 min
Bit rate : 8 347 kb/s
Width : 1 920 pixels
Height : 1 080 pixels
Display aspect ratio : 16:9
Frame rate mode : Constant
Frame rate : 23.976 (24000/1001) FPS
Color space : YUV
Chroma subsampling : 4:2:0
Bit depth : 8 bits
Scan type : Progressive
Bits/(Pixel*Frame) : 0.168
Stream size : 8.33 GiB (78%)
Writing library : x264 core 125 r2208 d9d2288
Encoding settings : cabac=1 / ref=4 / deblock=1:0:0 / analyse=0x3:0x133 / me=umh / subme=7 / psy=1 / psy_rd=1.00:0.02 / mixed_ref=1 / me_range=16 / chroma_me=1 / trellis=1 / 8x8dct=1 / cqm=0 / deadzone=21,11 / fast_pskip=0 / chroma_qp_offset=-3 / threads=12 / lookahead_threads=2 / sliced_threads=0 / nr=0 / decimate=1 / interlaced=0 / bluray_compat=0 / constrained_intra=0 / bframes=3 / b_pyramid=2 / b_adapt=1 / b_bias=0 / direct=1 / weightb=1 / open_gop=0 / weightp=2 / keyint=240 / keyint_min=23 / scenecut=40 / intra_refresh=0 / rc_lookahead=40 / rc=2pass / mbtree=1 / bitrate=8347 / ratetol=1.0 / qcomp=0.60 / qpmin=0 / qpmax=69 / qpstep=4 / cplxblur=20.0 / qblur=0.5 / ip_ratio=1.40 / aq=1:1.00
Language : English
Default : Yes
Forced : No

Audio #1
ID : 2
Format : DTS
Format/Info : Digital Theater Systems
Codec ID : A_DTS
Duration : 2 h 22 min
Bit rate mode : Constant
Bit rate : 1 509 kb/s
Channel(s) : 6 channels
Channel positions : Front: L C R, Side: L R, LFE
Sampling rate : 48.0 kHz
Frame rate : 93.750 FPS (512 SPF)
Bit depth : 24 bits
Compression mode : Lossy
Stream size : 1.51 GiB (14%)
Language : English
Default : Yes
Forced : No

Audio #2
ID : 3
Format : DTS
Format/Info : Digital Theater Systems
Codec ID : A_DTS
Duration : 2 h 22 min
Bit rate mode : Constant
Bit rate : 755 kb/s
Channel(s) : 6 channels
Channel positions : Front: L C R, Side: L R, LFE
Sampling rate : 48.0 kHz
Frame rate : 93.750 FPS (512 SPF)
Bit depth : 24 bits
Compression mode : Lossy
Stream size : 771 MiB (7%)
Title : DTS 768
Language : Thai
Default : No
Forced : Yes

Text #1
ID : 4
Format : UTF-8
Codec ID : S_TEXT/UTF8
Codec ID/Info : UTF-8 Plain Text
Duration : 3 min 46 s
Bit rate : 24 b/s
Count of elements : 31
Stream size : 700 Bytes (0%)
Language : English
Default : Yes
Forced : Yes

Text #2
ID : 5
Format : VobSub
Muxing mode : zlib
Codec ID : S_VOBSUB
Codec ID/Info : Picture based subtitle format used on DVDs
Duration : 2 h 15 min
Bit rate : 3 585 b/s
Count of elements : 1646
Stream size : 3.47 MiB (0%)
Title : 1080P
Language : Thai
Default : No
Forced : Yes

Text #3
ID : 6
Format : VobSub
Muxing mode : zlib
Codec ID : S_VOBSUB
Codec ID/Info : Picture based subtitle format used on DVDs
Duration : 2 h 15 min
Bit rate : 3 585 b/s
Count of elements : 1646
Stream size : 3.47 MiB (0%)
Title : 1080P UNDER
Language : Thai
Default : No
Forced : No

Text #4
ID : 7
Format : VobSub
Muxing mode : zlib
Codec ID : S_VOBSUB
Codec ID/Info : Picture based subtitle format used on DVDs
Duration : 2 h 15 min
Bit rate : 1 347 b/s
Count of elements : 1646
Stream size : 1.30 MiB (0%)
Title : 480P
Language : Thai
Default : No
Forced : No

Text #5
ID : 8
Format : UTF-8
Codec ID : S_TEXT/UTF8
Codec ID/Info : UTF-8 Plain Text
Duration : 2 h 15 min
Bit rate : 59 b/s
Count of elements : 2043
Stream size : 58.9 KiB (0%)
Title : SRT
Language : English
Default : No
Forced : No

Text #6
ID : 9
Format : PGS
Muxing mode : zlib
Codec ID : S_HDMV/PGS
Codec ID/Info : Picture based subtitle format used on BDs/HD-DVDs
Duration : 2 h 15 min
Bit rate : 6 833 b/s
Count of elements : 3292
Stream size : 6.61 MiB (0%)
Title : BD MASTER
Language : Thai
Default : No
Forced : No

Text #7
ID : 10
Format : PGS
Muxing mode : zlib
Codec ID : S_HDMV/PGS
Codec ID/Info : Picture based subtitle format used on BDs/HD-DVDs
Duration : 2 h 15 min
Bit rate : 10.2 kb/s
Count of elements : 3506
Stream size : 9.92 MiB (0%)
Title : BD MASTER
Language : English
Default : No
Forced : No

Menu
00:00:00.000 : en:00:00:00.000
00:08:02.315 : en:00:08:02.315
00:11:49.167 : en:00:11:49.167
00:15:18.751 : en:00:15:18.751
00:20:33.482 : en:00:20:33.482
00:23:04.258 : en:00:23:04.258
00:29:39.444 : en:00:29:39.444
00:37:23.992 : en:00:37:23.992
00:42:47.982 : en:00:42:47.982
00:50:22.269 : en:00:50:22.269
01:01:04.661 : en:01:01:04.661
01:14:05.107 : en:01:14:05.107
01:28:01.234 : en:01:28:01.234
01:38:20.561 : en:01:38:20.561
01:45:40.167 : en:01:45:40.167
01:51:15.085 : en:01:51:15.085
01:57:47.769 : en:01:57:47.769
02:04:38.680 : en:02:04:38.680
02:09:39.397 : en:02:09:39.397
02:13:10.691 : en:02:13:10.691



เรื่องย่อ : Avengers Age of Ultron (2015) ดิ อเวนเจอร์ส มหาศึกอัลตรอนถล่มโลก
มหากาพย์ภาคต่อของภาพยนตร์ซูเปอร์ฮีโร่เรื่องยิ่งใหญ ่ตลอดกาล เมื่อโทนี่ สตาร์คต้องการที่จะปัดฝุ่นโครงการเพื่อสันติสุขของชา วโลกขึ้นมาอีกครั้ง แต่มันไม่ได้เป็นไปอย่างที่คาดไว้ และเหล่าซูเปอร์ฮีโร่ผู้ทรงพลังอย่าง ไอรอนแมน, กัปตันอเมริกา, ธอร์, ดิ อินเครดิเบิ้ล ฮัลค์, แบล็ค วิโดว์ และ ฮอว์คอาย ต้องเผชิญกับบททดสอบอันยิ่งใหญ่โดยมีชะตากรรมของโลกแ ขวนอยู่บนเส้นด้าย เมื่อ “อัลตรอน” สุดยอดวายร้ายได้ถือกำเนิด มีเพียงเหล่าอเวนเจอร์สเท่านั้นที่จะสามารถหยุดยั้งเ ขาและแผนการอันชั่วร้ายของเขาได้ ความวิตกกังวลของเหล่าซูเปอร์ฮีโร่ยอดนักสู้และการกร ะทำที่ไม่คาดคิดได้นำไปสู่มหากาพย์การผจญภัยระดับโลก ที่ไม่มีใครเหมือน!!


Format : Matroska
Format version : Version 4 / Version 2
File size : 11.7 GiB
Duration : 2 h 21 min
Overall bit rate : 11.9 Mb/s
Movie name : Avengers.Age.of.Ultron.2015.1080p.BluRay.x264
Encoded date : UTC 2018-08-06 04:48:48
Writing application : mkvmerge v9.3.1 ( Mask Machine ) 32bit
Writing library : libebml v1.3.4 + libmatroska v1.4.5
Cover : Yes
Attachments : cover_land.png / cover.png

Video
ID : 1
Format : AVC
Format/Info : Advanced Video Codec
Format profile : [email protected]
Format settings : CABAC / 5 Ref Frames
Format settings, CABAC : Yes
Format settings, ReFrames : 5 frames
Codec ID : V_MPEG4/ISO/AVC
Duration : 2 h 21 min
Bit rate : 9 562 kb/s
Width : 1 920 pixels
Height : 808 pixels
Display aspect ratio : 2.40:1
Frame rate mode : Constant
Frame rate : 23.976 FPS
Color space : YUV
Chroma subsampling : 4:2:0
Bit depth : 8 bits
Scan type : Progressive
Bits/(Pixel*Frame) : 0.257
Stream size : 9.44 GiB (81%)
Writing library : x264 core 148 r2597 e86f3a1
Encoding settings : cabac=1 / ref=5 / deblock=1:0:0 / analyse=0x3:0x133 / me=umh / subme=7 / psy=1 / psy_rd=1.00:0.00 / mixed_ref=1 / me_range=16 / chroma_me=1 / trellis=1 / 8x8dct=1 / cqm=0 / deadzone=21,11 / fast_pskip=0 / chroma_qp_offset=-2 / threads=25 / lookahead_threads=4 / sliced_threads=0 / nr=0 / decimate=1 / interlaced=0 / bluray_compat=0 / constrained_intra=0 / bframes=3 / b_pyramid=2 / b_adapt=1 / b_bias=0 / direct=1 / weightb=1 / open_gop=0 / weightp=2 / keyint=250 / keyint_min=23 / scenecut=40 / intra_refresh=0 / rc_lookahead=40 / rc=2pass / mbtree=1 / bitrate=9562 / ratetol=1.0 / qcomp=0.60 / qpmin=0 / qpmax=69 / qpstep=4 / cplxblur=20.0 / qblur=0.5 / ip_ratio=1.40 / aq=1:1.00
Language : English
Default : Yes
Forced : No

Audio #1
ID : 2
Format : DTS
Format/Info : Digital Theater Systems
Codec ID : A_DTS
Duration : 2 h 21 min
Bit rate mode : Constant
Bit rate : 1 509 kb/s
Channel(s) : 6 channels
Channel positions : Front: L C R, Side: L R, LFE
Sampling rate : 48.0 kHz
Frame rate : 93.750 FPS (512 SPF)
Bit depth : 24 bits
Compression mode : Lossy
Stream size : 1.49 GiB (13%)
Language : English
Default : Yes
Forced : No

Audio #2
ID : 3
Format : DTS
Format/Info : Digital Theater Systems
Codec ID : A_DTS
Duration : 2 h 21 min
Bit rate mode : Constant
Bit rate : 755 kb/s
Channel(s) : 6 channels
Channel positions : Front: L C R, Side: L R, LFE
Sampling rate : 48.0 kHz
Frame rate : 93.750 FPS (512 SPF)
Bit depth : 24 bits
Compression mode : Lossy
Stream size : 763 MiB (6%)
Title : DTS FROM BD MASTER
Language : Thai
Default : No
Forced : Yes

Text #1
ID : 4
Format : VobSub
Muxing mode : zlib
Codec ID : S_VOBSUB
Codec ID/Info : Picture based subtitle format used on DVDs
Duration : 2 h 20 min
Bit rate : 3 375 b/s
Count of elements : 1880
Stream size : 3.39 MiB (0%)
Title : 1080P BD MASTER
Language : Thai
Default : Yes
Forced : Yes

Text #2
ID : 5
Format : VobSub
Muxing mode : zlib
Codec ID : S_VOBSUB
Codec ID/Info : Picture based subtitle format used on DVDs
Duration : 2 h 20 min
Bit rate : 3 374 b/s
Count of elements : 1880
Stream size : 3.39 MiB (0%)
Title : 1080P BD UNDER
Language : Thai
Default : No
Forced : No

Text #3
ID : 6
Format : VobSub
Muxing mode : zlib
Codec ID : S_VOBSUB
Codec ID/Info : Picture based subtitle format used on DVDs
Duration : 2 h 20 min
Bit rate : 4 751 b/s
Count of elements : 1896
Stream size : 4.77 MiB (0%)
Title : 1080P AS
Language : Thai
Default : No
Forced : No

Text #4
ID : 7
Format : VobSub
Muxing mode : zlib
Codec ID : S_VOBSUB
Codec ID/Info : Picture based subtitle format used on DVDs
Duration : 2 h 20 min
Bit rate : 2 361 b/s
Count of elements : 1880
Stream size : 2.37 MiB (0%)
Title : 720P BD MASTER
Language : Thai
Default : No
Forced : No

Text #5
ID : 8
Format : VobSub
Muxing mode : zlib
Codec ID : S_VOBSUB
Codec ID/Info : Picture based subtitle format used on DVDs
Duration : 2 h 20 min
Bit rate : 1 279 b/s
Count of elements : 1880
Stream size : 1.29 MiB (0%)
Title : 480P BD MASTER
Language : Thai
Default : No
Forced : No

Text #6
ID : 9
Format : UTF-8
Codec ID : S_TEXT/UTF8
Codec ID/Info : UTF-8 Plain Text
Duration : 2 h 20 min
Bit rate : 107 b/s
Count of elements : 1896
Stream size : 110 KiB (0%)
Title : SRT OCR FROM MASTER
Language : Thai
Default : No
Forced : No

Text #7
ID : 10
Format : PGS
Muxing mode : zlib
Codec ID : S_HDMV/PGS
Codec ID/Info : Picture based subtitle format used on BDs/HD-DVDs
Duration : 2 h 4 min
Bit rate : 45 b/s
Count of elements : 14
Stream size : 41.2 KiB (0%)
Title : BD MASTER
Language : Thai
Default : No
Forced : No

Text #8
ID : 11
Format : PGS
Muxing mode : zlib
Codec ID : S_HDMV/PGS
Codec ID/Info : Picture based subtitle format used on BDs/HD-DVDs
Duration : 2 h 20 min
Bit rate : 6 741 b/s
Count of elements : 3760
Stream size : 6.77 MiB (0%)
Title : BD UNDER
Language : Thai
Default : No
Forced : No

Text #9
ID : 12
Format : PGS
Muxing mode : zlib
Codec ID : S_HDMV/PGS
Codec ID/Info : Picture based subtitle format used on BDs/HD-DVDs
Duration : 2 h 20 min
Bit rate : 13.4 kb/s
Count of elements : 3792
Stream size : 13.4 MiB (0%)
Title : AS
Language : Thai
Default : No
Forced : No

Text #10
ID : 13
Format : PGS
Muxing mode : zlib
Codec ID : S_HDMV/PGS
Codec ID/Info : Picture based subtitle format used on BDs/HD-DVDs
Duration : 2 h 12 min
Bit rate : 13.1 kb/s
Count of elements : 4314
Stream size : 12.5 MiB (0%)
Title : BD MASTER
Language : English
Default : No
Forced : No

Menu
00:00:00.000 : en:00:00:00.000
00:12:15.193 : en:00:12:15.193
00:21:23.949 : en:00:21:23.949
00:33:01.771 : en:00:33:01.771
00:36:07.624 : en:00:36:07.624
00:42:00.768 : en:00:42:00.768
00:52:44.745 : en:00:52:44.745
00:59:01.872 : en:00:59:01.872
01:15:51.088 : en:01:15:51.088
01:27:08.598 : en:01:27:08.598
01:36:44.757 : en:01:36:44.757
01:54:35.327 : en:01:54:35.327
02:06:27.580 : en:02:06:27.580
02:11:08.027 : en:02:11:08.027



เรื่องย่อ : Avengers Infinity War (2018) มหาสงครามอัญมณีล้างจักรวาล
การกลับมาอีกครั้งกับเหล่าซุปเปอร์ฮีโร่ในกลุ่ม Avengers อเวนเจอร์ส ที่จะต้องผนึกกำลังกันเพื่อต่อกรกับ Thanos ภาพยนตร์ฟอร์มยักษ์จากค่าย Marvel พวกเขาต้องเต็มใจที่จะเสียสละทุกสิ่งทุกอย่างเพื่อเอ าชนะ Thanos ที่มีพลังก่อนจะมีการล้างผลาญแล้วก็การล้มล้างของเขา จะมีผลให้จักรวาลสิ้นสุดลง !!


Format : Matroska
Format version : Version 4 / Version 2
File size : 12.3 GiB
Duration : 2 h 29 min
Overall bit rate : 11.8 Mb/s
Movie name : Avengers.Infinity.War.2018.1080p.BluRay.x264
Encoded date : UTC 2018-08-06 03:48:33
Writing application : mkvmerge v9.3.1 ( Mask Machine ) 32bit
Writing library : libebml v1.3.4 + libmatroska v1.4.5
Cover : Yes
Attachments : small_cover.jpg / small_cover_land.jpg / cover.jpg / cover_land.jpg

Video
ID : 1
Format : AVC
Format/Info : Advanced Video Codec
Format profile : [email protected]
Format settings : CABAC / 5 Ref Frames
Format settings, CABAC : Yes
Format settings, ReFrames : 5 frames
Codec ID : V_MPEG4/ISO/AVC
Duration : 2 h 29 min
Bit rate : 10.0 Mb/s
Width : 1 920 pixels
Height : 808 pixels
Display aspect ratio : 2.40:1
Frame rate mode : Constant
Frame rate : 23.976 (24000/1001) FPS
Color space : YUV
Chroma subsampling : 4:2:0
Bit depth : 8 bits
Scan type : Progressive
Bits/(Pixel*Frame) : 0.269
Stream size : 10.4 GiB (85%)
Writing library : x264 core 155 r2901 7d0ff22
Encoding settings : cabac=1 / ref=5 / deblock=1:0:0 / analyse=0x3:0x113 / me=umh / subme=8 / psy=1 / psy_rd=1.00:0.00 / mixed_ref=1 / me_range=16 / chroma_me=1 / trellis=1 / 8x8dct=1 / cqm=0 / deadzone=21,11 / fast_pskip=1 / chroma_qp_offset=-2 / threads=24 / lookahead_threads=4 / sliced_threads=0 / nr=0 / decimate=1 / interlaced=0 / bluray_compat=0 / constrained_intra=0 / bframes=3 / b_pyramid=2 / b_adapt=1 / b_bias=0 / direct=3 / weightb=1 / open_gop=0 / weightp=2 / keyint=240 / keyint_min=24 / scenecut=40 / intra_refresh=0 / rc_lookahead=50 / rc=2pass / mbtree=1 / bitrate=10007 / ratetol=1.0 / qcomp=0.60 / qpmin=0 / qpmax=69 / qpstep=4 / cplxblur=20.0 / qblur=0.5 / ip_ratio=1.40 / aq=1:1.00
Language : English
Default : Yes
Forced : No

Audio #1
ID : 2
Format : DTS
Format/Info : Digital Theater Systems
Codec ID : A_DTS
Duration : 2 h 29 min
Bit rate mode : Constant
Bit rate : 1 509 kb/s
Channel(s) : 6 channels
Channel positions : Front: L C R, Side: L R, LFE
Sampling rate : 48.0 kHz
Frame rate : 93.750 FPS (512 SPF)
Bit depth : 24 bits
Compression mode : Lossy
Stream size : 1.57 GiB (13%)
Language : English
Default : Yes
Forced : No

Audio #2
ID : 3
Format : AAC
Format/Info : Advanced Audio Codec
Format profile : LC
Codec ID : A_AAC-2
Duration : 2 h 29 min
Bit rate : 245 kb/s
Channel(s) : 2 channels
Channel positions : Front: L R
Sampling rate : 48.0 kHz
Frame rate : 46.875 FPS (1024 SPF)
Compression mode : Lossy
Delay relative to video : 1 s 0 ms
Stream size : 262 MiB (2%)
Title : Thai Master
Language : Thai
Default : No
Forced : Yes

Text #1
ID : 4
Format : VobSub
Muxing mode : zlib
Codec ID : S_VOBSUB
Codec ID/Info : Picture based subtitle format used on DVDs
Duration : 2 h 29 min
Bit rate : 3 689 b/s
Count of elements : 1581
Stream size : 3.94 MiB (0%)
Title : Thai 1080p Master
Language : Thai
Default : No
Forced : Yes

Text #2
ID : 5
Format : VobSub
Muxing mode : zlib
Codec ID : S_VOBSUB
Codec ID/Info : Picture based subtitle format used on DVDs
Duration : 2 h 29 min
Bit rate : 3 684 b/s
Count of elements : 1581
Stream size : 3.93 MiB (0%)
Title : Thai 1080p Yellow
Language : Thai
Default : No
Forced : No

Text #3
ID : 6
Format : VobSub
Muxing mode : zlib
Codec ID : S_VOBSUB
Codec ID/Info : Picture based subtitle format used on DVDs
Duration : 2 h 29 min
Bit rate : 3 697 b/s
Count of elements : 1581
Stream size : 3.95 MiB (0%)
Title : Thai 1080p Out
Language : Thai
Default : No
Forced : No

Text #4
ID : 7
Format : PGS
Muxing mode : zlib
Codec ID : S_HDMV/PGS
Codec ID/Info : Picture based subtitle format used on BDs/HD-DVDs
Duration : 2 h 29 min
Bit rate : 12.5 kb/s
Count of elements : 3162
Stream size : 13.3 MiB (0%)
Title : Thai PGS
Language : Thai
Default : No
Forced : No

Text #5
ID : 8
Format : UTF-8
Codec ID : S_TEXT/UTF8
Codec ID/Info : UTF-8 Plain Text
Duration : 1 s 126 ms
Bit rate : 134 b/s
Count of elements : 1
Stream size : 19.0 Bytes (0%)
Title : English forced
Language : English
Default : No
Forced : Yes

Menu
00:00:00.000 : en:00:00:00.000
00:11:28.730 : en:00:11:28.730
00:18:13.884 : en:00:18:13.884
00:27:23.809 : en:00:27:23.809
00:35:48.813 : en:00:35:48.813
00:42:23.541 : en:00:42:23.541
00:54:12.875 : en:00:54:12.875
00:59:36.740 : en:00:59:36.740
01:05:07.153 : en:01:05:07.153
01:10:53.666 : en:01:10:53.666
01:17:06.956 : en:01:17:06.956
01:24:14.758 : en:01:24:14.758
01:31:08.004 : en:01:31:08.004
01:42:00.406 : en:01:42:00.406
01:45:57.810 : en:01:45:57.810
01:53:04.069 : en:01:53:04.069
01:58:52.917 : en:01:58:52.917
02:03:58.181 : en:02:03:58.181
02:11:13.282 : en:02:11:13.282
02:17:31.285 : en:02:17:31.285


1
http://www.mekafile.com/dl.php?f=5d2090bIwN65
2
http://www.mekafile.com/dl.php?f=gO455bbIwM8A
3
http://www.mekafile.com/dl.php?f=q210e9bIwMGe

1
http://cornfile.com/m8lw5s4zx33p
2
http://cornfile.com/kncie1fl2v2c
3
http://cornfile.com/k50x3b2ps12i