+ Reply to Thread
Results 1 to 2 of 2
  1. #1
    Administrators Duckload.us's Avatar
    Join Date
    Dec 2010
    Posts
    95,593
    Thanks
    9
    Thanked 97,597 Times in 46,940 Posts

    Question [ฝรั่ง]-Blockers.บล็อกซั่ม วันพรอมป่วนน.2018.Blu-ray.H.264.1080p.DTS.หนังครอบครัวเรต R ฮาน้ำตาเล็ด[เสียงอังกฤษบูลเรย์ DTS-HD 5.1][บรรยายไทยบูลเรย์มาสเตอร์]-Blu-ray.H.264.1080p. [Master]-[Soundtrack บรรยายไทย]






    จอห์น ซีน่า ซุปเปอร์สตาร์มวยปล้ำ WWE แชมป์โลก 16 สมัย สลัดภาพสุดสตรอง มารับบทคุณพ่อหวงลูกสาว ใน Blockers บล็อคซั่มวันพรอมป่วน
    โดยร่วมแท็คทีมกับนักแสดงสายฮาอย่าง ไอค์ แบร์ริฮอลท์ซ และเลสลี แมนน์
    พบกับภารกิจสุดฮาของ 3 ผู้ปกครอง มิทช์ (จอห์น ซีน่า จาก Daddy’s Home, Trainwreck), ฮันเตอร์ (ไอค์ แบร์ริฮอลท์ซ จาก Bad Neighbours, Suicide Squad)
    และ ลิซ่า (เลสลี แมนน์ จาก The Other Woman, This Is 40) กับการหยุดยั้งลูกสาวที่วางแผนจะชิงสุกก่อนห่ามในคืน วันพรอม ใน Blockers บล็อกซั่มวันพรอมป่วน
    ผลงานจากผู้สร้าง Bad Neighbours กำกับโดย เคย์ แคนนอน (ผู้เขียนบทจากแฟรนไชส์ Pitch Perfect)



    General
    Unique ID : 320963206254598556228059622343432442144 (0xF17743D6DBB698E404E5A096F7879120)
    Complete name : H:Blockers.2018.1080p.BluRay.x264.DTS-HD.MA.5.1-GEEJAA.mkv
    Format : Matroska
    Format version : Version 4 / Version 2
    File size : 4.67 GiB
    Duration : 1h 41mn
    Overall bit rate mode : Variable
    Overall bit rate : 6 560 Kbps
    Encoded date : UTC 2018-08-09T05:53:51Z
    Writing application : HandBrake 1.0.7 2017040900
    Writing library : Lavf57.7.2

    Video
    ID : 1
    Format : AVC
    Format/Info : Advanced Video Codec
    Format profile : [email protected]
    Format settings, CABAC : Yes
    Format settings, ReFrames : 4 frames
    Codec ID : V_MPEG4/ISO/AVC
    Duration : 1h 41mn
    Width : 1 920 pixels
    Height : 804 pixels
    Display aspect ratio : 2.40:1
    Frame rate mode : Constant
    Frame rate : 23.976 fps
    Color space : YUV
    Chroma subsampling : 4:2:0
    Bit depth : 8 bits
    Scan type : Progressive
    Writing library : x264 core 148 r2708 86b7198
    Encoding settings : cabac=1 / ref=1 / deblock=1:0:0 / analyse=0x1:0x111 / me=hex / subme=2 / psy=1 / psy_rd=1.00:0.00 / mixed_ref=0 / me_range=16 / chroma_me=1 / trellis=0 / 8x8dct=0 / cqm=0 / deadzone=21,11 / fast_pskip=1 / chroma_qp_offset=0 / threads=9 / lookahead_threads=3 / sliced_threads=0 / nr=0 / decimate=1 / interlaced=0 / bluray_compat=0 / constrained_intra=0 / bframes=3 / b_pyramid=2 / b_adapt=1 / b_bias=0 / direct=1 / weightb=1 / open_gop=0 / weightp=1 / keyint=240 / keyint_min=24 / scenecut=40 / intra_refresh=0 / rc_lookahead=10 / rc=crf / mbtree=1 / crf=24.0 / qcomp=0.60 / qpmin=0 / qpmax=69 / qpstep=4 / vbv_maxrate=20000 / vbv_bufsize=25000 / crf_max=0.0 / nal_hrd=none / filler=0 / ip_ratio=1.40 / aq=1:1.00
    Default : Yes
    Forced : No
    Color primaries : BT.709
    Transfer characteristics : BT.709
    Matrix coefficients : BT.709

    Audio #1
    ID : 2
    Format : DTS
    Format/Info : Digital Theater Systems
    Mode : 16
    Format settings, Endianness : Big
    Codec ID : A_DTS
    Duration : 1h 41mn
    Bit rate mode : Constant
    Bit rate : 1 509 Kbps
    Channel(s) : 6 channels
    Channel positions : Front: L C R, Side: L R, LFE
    Sampling rate : 48.0 KHz
    Bit depth : 24 bits
    Compression mode : Lossy
    Stream size : 1.07 GiB (23%)
    Title : Surround
    Language : English
    Default : Yes
    Forced : No

    Audio #2
    ID : 3
    Format : DTS
    Format/Info : Digital Theater Systems
    Format profile : MA / Core
    Mode : 16
    Format settings, Endianness : Big
    Codec ID : A_DTS
    Duration : 1h 41mn
    Bit rate mode : Variable
    Bit rate : Unknown / 1 509 Kbps
    Channel(s) : 6 channels
    Channel positions : Front: L C R, Side: L R, LFE
    Sampling rate : 48.0 KHz
    Bit depth : 24 bits
    Compression mode : Lossless / Lossy
    Title : Surround
    Language : English
    Default : No
    Forced : No

    Audio #3
    ID : 4
    Format : AC-3
    Format/Info : Audio Coding 3
    Format profile : Dolby Digital
    Mode extension : CM (complete main)
    Format settings, Endianness : Big
    Codec ID : A_AC3
    Duration : 1h 41mn
    Bit rate mode : Constant
    Bit rate : 192 Kbps
    Channel(s) : 2 channels
    Channel positions : Front: L R
    Sampling rate : 48.0 KHz
    Bit depth : 16 bits
    Compression mode : Lossy
    Delay relative to video : 15ms
    Stream size : 140 MiB (3%)
    Title : Stereo
    Language : English
    Default : No
    Forced : No

    Text #1
    ID : 5
    Format : PGS
    Codec ID : S_HDMV/PGS
    Codec ID/Info : The same subtitle format used on BDs/HD-DVDs
    Language : Thai
    Default : No
    Forced : No

    Text #2
    ID : 6
    Format : PGS
    Codec ID : S_HDMV/PGS
    Codec ID/Info : The same subtitle format used on BDs/HD-DVDs
    Language : English
    Default : No
    Forced : No

    Menu
    00:00:00.000 : :Chapter 1
    00:02:50.087 : :Chapter 2
    00:10:02.143 : :Chapter 3
    00:14:50.139 : :Chapter 4
    00:22:11.956 : :Chapter 5
    00:26:09.109 : :Chapter 6
    00:32:02.963 : :Chapter 7
    00:35:18.450 : :Chapter 8
    00:40:06.529 : :Chapter 9
    00:44:33.546 : :Chapter 10
    00:49:58.245 : :Chapter 11
    00:55:14.770 : :Chapter 12
    00:59:26.521 : :Chapter 13
    01:05:34.472 : :Chapter 14
    01:10:20.633 : :Chapter 15
    01:15:47.001 : :Chapter 16
    01:22:48.213 : :Chapter 17
    01:26:38.819 : :Chapter 18
    01:31:15.971 : :Chapter 19
    01:34:08.560 : :Chapter 20

    SS












    Download: cornfile
    http://cornfile.com/f3d1xutteagb
    Download: mekafile
    http://www.mekafile.com/dl.php?f=2Vd5b1bIEhWT

  2. #2
    Senior Member
    Join Date
    Oct 2013
    Posts
    1,301
    Thanks
    0
    Thanked 0 Times in 0 Posts
    ขอบคุณครับ

+ Reply to Thread

Thread Information

Users Browsing this Thread

There are currently 1 users browsing this thread. (0 members and 1 guests)

     

Posting Permissions

  • You may not post new threads
  • You may not post replies
  • You may not post attachments
  • You may not edit your posts