Video

ID : 1

Format : AVC

Format/Info : Advanced Video Codec

Format profile : [email protected]

Format settings, CABAC : Yes

Format settings, RefFrames : 3 frames

Codec ID : V_MPEG4/ISO/AVC

Duration : 1 h 37 min

Bit rate mode : Variable

Bit rate : 7 150 kb/s

Maximum bit rate : 10.7 Mb/s

Width : 1 920 pixels

Height : 1 080 pixels

Display aspect ratio : 16:9

Frame rate mode : Constant

Frame rate : 29.970 (30000/1001) FPS

Color space : YUV

Chroma subsampling : 4:2:0

Bit depth : 8 bits

Scan type : Progressive

Bits/(Pixel*Frame) : 0.115

Stream size : 4.83 GiB (96%)

Title : Busted.S01E01

Default : Yes

Forced : No



Audio

ID : 2

Format : E-AC-3

Format/Info : Enhanced Audio Coding 3

Format settings, Endianness : Big

Codec ID : A_EAC3

Duration : 1 h 37 min

Bit rate mode : Constant

Bit rate : 192 kb/s

Channel(s) : 6 channels

Channel positions : Front: L C R, Side: L R, LFE

Sampling rate : 48.0 kHz

Frame rate : 187.500 FPS (256 SPF)

Compression mode : Lossy

Stream size : 134 MiB (3%)

Title : KR AC3

Language : Korean

Service kind : Complete Main

Default : Yes

Forced : No



Text #1

ID : 3

Format : PGS

Muxing mode : zlib

Codec ID : S_HDMV/PGS

Codec ID/Info : Picture based subtitle format used on BDs/HD-DVDs

Duration : 1 h 37 min

Bit rate : 80.7 kb/s

Count of elements : 4690

Stream size : 56.3 MiB (1%)

Title : TH_PGS

Language : Thai

Default : Yes

Forced : No



Text #2

ID : 4

Format : VobSub

Muxing mode : zlib

Codec ID : S_VOBSUB

Codec ID/Info : Picture based subtitle format used on DVDs

Duration : 1 h 37 min

Bit rate : 15.9 kb/s

Count of elements : 2345

Stream size : 11.1 MiB (0%)

Title : TH_VOB

Language : Thai

Default : No

Forced : No



Text #3

ID : 5

Format : VobSub

Muxing mode : zlib

Codec ID : S_VOBSUB

Codec ID/Info : Picture based subtitle format used on DVDs

Duration : 1 h 37 min

Bit rate : 15.9 kb/s

Count of elements : 2345

Stream size : 11.1 MiB (0%)

Title : TH_VOB_YELLOW

Language : Thai

Default : No

Forced : No




Busted.folder.tar
http://www.filecondo.com/dl.php?f=z852b21HFjWy