+ Reply to Thread
Results 1 to 2 of 2
  1. #1
    Senior Member
    Join Date
    Feb 2018
    Posts
    651
    Thanks
    0
    Thanked 247 Times in 176 Posts

    Arrow [Mini-HD] Jurassic World: Fallen Kingdom (2018) : จูราสสิค เวิลด์: อาณาจักรล่มสลาย !!! [เสียง:ไทยโรง,อังกฤษ]





    Jurassic.World.Fallen.Kingdom.2018.1080p.WEB-DL.DD5.1.H264-THR..mkv
    Format : Matroska
    Format version : Version 4 / Version 2
    File size : 4.65 GiB
    Duration : 2 h 8 min
    Overall bit rate : 5 184 kb/s
    Movie name : Jurassic.World.Fallen.Kingdom.2018.1080p.WEB-DL.DD5.1.H264-FGT
    Encoded date : UTC 2018-09-04 11:41:04
    Writing application : mkvmerge v26.0.0 ('In The Game') 32-bit
    Writing library : libebml v1.3.6 + libmatroska v1.4.9
    Cover : Yes
    Attachments : small_cover.jpg / small_cover_land.jpg / cover.jpg / cover_land.jpg

    Video
    ID : 1
    Format : AVC
    Format/Info : Advanced Video Codec
    Format profile : [email protected]
    Format settings, CABAC : Yes
    Format settings, RefFrames : 5 frames
    Codec ID : V_MPEG4/ISO/AVC
    Duration : 2 h 8 min
    Bit rate : 4 605 kb/s
    Width : 1 920 pixels
    Height : 804 pixels

    Display aspect ratio : 2.40:1
    Frame rate mode : Constant
    Frame rate : 23.976 (24000/1001) FPS
    Color space : YUV
    Chroma subsampling : 4:2:0
    Bit depth : 8 bits
    Scan type : Progressive
    Bits/(Pixel*Frame) : 0.124
    Stream size : 4.13 GiB (89%)
    Title : Jurassic.World.Fallen.Kingdom.2018.1080p.WEB-DL.DD5.1.H264
    Language : English
    Default : Yes
    Forced : No
    Color range : Limited
    Color primaries : BT.709
    Transfer characteristics : BT.709
    Matrix coefficients : BT.709

    Audio #1
    ID : 2
    Format : AC-3
    Format/Info : Audio Coding 3
    Format settings, Endianness : Big
    Codec ID : A_AC3
    Duration : 2 h 8 min
    Bit rate mode : Constant
    Bit rate : 192 kb/s
    Channel(s) : 2 channels
    Channel positions : Front: L R
    Sampling rate : 48.0 kHz
    Frame rate : 31.250 FPS (1536 SPF)
    Bit depth : 16 bits
    Compression mode : Lossy
    Delay relative to video : -42 ms
    Stream size : 176 MiB (4%)
    Title : THR_By TTWW
    Language : Thai

    Service kind : Complete Main
    Default : No
    Forced : No

    Audio #2
    ID : 3
    Format : AC-3
    Format/Info : Audio Coding 3
    Format settings, Endianness : Big
    Codec ID : A_AC3
    Duration : 2 h 8 min
    Bit rate mode : Constant
    Bit rate : 384 kb/s
    Channel(s) : 6 channels
    Channel positions : Front: L C R, Side: L R, LFE
    Sampling rate : 48.0 kHz
    Frame rate : 31.250 FPS (1536 SPF)
    Bit depth : 16 bits
    Compression mode : Lossy
    Delay relative to video : -42 ms
    Stream size : 352 MiB (7%)
    Title : Jurassic.World.Fallen.Kingdom.2018.1080p.WEB-DL.DD5.1.H264
    Language : English
    Service kind : Complete Main
    Default : Yes
    Forced : No




    เรื่องราวเกี่ยวกับ Claire Dearing นางเอกสาวส้นสูงของเราผู้เป็นคนก่อตั้งองค์กรใหม่ขึ้ นมาที่ชื่อว่า “Dinosaur Protection Group” หรือแปลได้ว่า “กลุ่มผู้คุ้มครองพิทักษ์ไดโนเสาร์” ที่ซึ่งจะเป็นกลุ่มที่มีการปรากฏตัวของตัวละครหน้าให ม่ที่รับบทโดย Daniella Pineda และ Justice Smith
    ภารกิจของพวกเขาต้องยากยิ่งขึ้นเมื่อพวกเขาต้องหาทาง อพยพเหล่าไดโนเสาร์ออกจากเกาะ หลังจากการตื่นขึ้นของภูเขาไฟยักษ์ ที่จะคร่าชีวิตของสิ่งมีชีวิตทุกชนิดบนเกาะและทำให้เ กาะแห่งนี้ลุกเป็นไฟ เธอจึงจำต้องกลับไปขอความช่วยเหลือจากคนรักเก่าของเธ ออย่าง Owen Grady พระเอกสุดเท่ผู้คุยกับไดโนเสาร์รู้เรื่องให้กลับมาช่ วยเธออีกครั้งหนึ่ง
    Jurassic World: Fallen Kingdom กำกับโดย J.A. Bayona
    นำแสดงโดย Chris Pratt, Bryce Dallas Howard, James Cromwell, Ted Levine, Geraldine Chaplin, Toby Jones, Rafe Spall ร่วมกับนักแสดงรับเชิญอย่าง BD Wong และ Jeff Goldblum


    ---------------------------------------------------------------------------------------------------------------

    ***ข้อแนะนำในการโหลดไฟล์จากเว็บต่างๆ***

    ###ควรใช้ IDM ในการโหลด และควรตั้งค่าเริ่มต้นเชื่อมต่อ ตั้งแต่ 8 ขึ้นไป ส่วนในกรณีที่ IDM ไม่ขึ้นตอนกดโหลดให้ติดตั้งส่วนขยายของ IDM ในเบราว์เซอร์ที่ใช้ ##




    http://cornfile.com/8892slnmv73y


    >>สมัคร VIP cornfile <<

    >> วิธีสมัคร VIP cornfile <<




    1 PART

    DOWNLOAD



    1 PART

    DOWNLOAD


    ติดตามอัพเดตเรื่องอื่นๆได้ที่

    https://enthdmovieclub.blogspot.com/

  2. The Following User Says Thank You to @@[email protected]@ For This Useful Post:

    Ausalaya (09-14-2018)

  3. #2
    Senior Member
    Join Date
    Sep 2011
    Posts
    1,034
    Thanks
    1,071
    Thanked 0 Times in 0 Posts
    Thkkkkkkkkkkkkkkkkkkkkkkkkkkkkkk

+ Reply to Thread

Thread Information

Users Browsing this Thread

There are currently 1 users browsing this thread. (0 members and 1 guests)

     

Posting Permissions

  • You may not post new threads
  • You may not post replies
  • You may not post attachments
  • You may not edit your posts