+ Reply to Thread
Results 1 to 1 of 1
  1. #1
    Administrators Duckload.us's Avatar
    Join Date
    Dec 2010
    Posts
    96,915
    Thanks
    9
    Thanked 98,375 Times in 47,332 Posts

    Question [Mini - HD]Toy Story1- 3 (2010) mkv [พากย์:อังกฤษ-ไทย][SUB:ไทย][1080p]


    เรื่องย่อ Toy Story
    ในฐานะของเล่นตัวโปรดของแอนดี้ เด็กชายวัย 6 ขวบ ทำให้วูดดี้กลายเป็นหัวหน้าบรรดาของเล่น ด้วยความมาดมั่น แต่เมื่อบัซ ไลท์เยียร์ ตุ๊กตาตำรวจอวกาศก้าวเข้าในถิ่นของวูดดี้ ในฐานะของขวัญวันเกิดชิ้นโปรดของแอนดี้ การชิงดีชิงเด่น เพื่อเป็นขวัญใจ ของเจ้านายตัวน้อยจึงเกิดขึ้น และส่งผลให้ทั้งคู่ต้องตกไปอยู่ในบ้านของซิด เด็กชายข้างบ้านผู้รักที่จะทำลายของเล่นเป็นชีวิตจิต ใจ และการร่วมมือระหว่างวูดดี้กับบัซ เพื่อหลบหนีกลับมานี่เองที่ทำให้พวกเขาตระหนักถึงมิต รแท้

    General
    Unique ID : 141013377257687595718637478496861978931 (0x6A163046E88935106DCB5E36DCC08133)
    Complete name : D:\[Mini - HD]Toy Story1- 3 (2010).mkv\[Mini-HD]Toy Story (1995).mkv
    Format : Matroska
    Format version : Version 2
    File size : 3.51 GiB
    Duration : 1 h 21 min
    Overall bit rate : 6 191 kb/s
    Writing application -
    Writing library : Lavf55.12.0 / Lavf55.12.0

    Video
    ID : 1
    Format : AVC
    Format/Info : Advanced Video Codec
    Format profile : [email protected]
    Format settings, CABAC : Yes
    Format settings, ReFrames : 4 frames
    Codec ID : V_MPEG4/ISO/AVC
    Duration : 1 h 21 min
    Bit rate : 3 919 kb/s
    Width : 1 910 pixels
    Height : 1 080 pixels
    Display aspect ratio : 16:9
    Frame rate mode : Constant
    Frame rate : 23.976 (24000/1001) FPS
    Color space : YUV
    Chroma subsampling : 4:2:0
    Bit depth : 8 bits
    Scan type : Progressive
    Bits/(Pixel*Frame) : 0.079
    Stream size : 2.22 GiB (63%)
    Writing library : x264 core 142 r2479 dd79a61
    Encoding settings : cabac=1 / ref=1 / deblock=1:0:0 / analyse=0x1:0x111 / me=hex / subme=2 / psy=1 / psy_rd=1.00:0.00 / mixed_ref=0 / me_range=16 / chroma_me=1 / trellis=0 / 8x8dct=0 / cqm=0 / deadzone=21,11 / fast_pskip=1 / chroma_qp_offset=0 / threads=6 / lookahead_threads=2 / sliced_threads=0 / nr=0 / decimate=1 / interlaced=0 / bluray_compat=0 / constrained_intra=0 / bframes=3 / b_pyramid=2 / b_adapt=1 / b_bias=0 / direct=1 / weightb=1 / open_gop=0 / weightp=1 / keyint=240 / keyint_min=24 / scenecut=40 / intra_refresh=0 / rc_lookahead=10 / rc=crf / mbtree=1 / crf=20.0 / qcomp=0.60 / qpmin=0 / qpmax=69 / qpstep=4 / vbv_maxrate=20000 / vbv_bufsize=25000 / crf_max=0.0 / nal_hrd=none / filler=0 / ip_ratio=1.40 / aq=1:1.00
    Default : Yes
    Forced : No
    Color range : Limited
    Color primaries : BT.709
    Transfer characteristics : BT.709
    Matrix coefficients : BT.709

    Audio #1
    ID : 2
    Format : DTS
    Format/Info : Digital Theater Systems
    Format profile : ES Matrix / Core
    Mode : 16
    Format settings, Endianness : Big
    Codec ID : A_DTS
    Duration : 1 h 21 min
    Bit rate mode : Constant
    Bit rate : 1 509 kb/s
    Channel(s) : 7 channels / 6 channels
    Channel positions : Front: L C R, Side: L R, Back: C, LFE / Front: L C R, Side: L R, LFE
    Sampling rate : 48.0 kHz
    Frame rate : 93.750 FPS (512 spf)
    Bit depth : 24 bits
    Compression mode : Lossy
    Stream size : 875 MiB (24%)
    Title : Surround
    Language : English
    Default : Yes
    Forced : No

    Audio #2
    ID : 3
    Format : AC-3
    Format/Info : Audio Coding 3
    Mode extension : CM (complete main)
    Format settings, Endianness : Big
    Codec ID : A_AC3
    Duration : 1 h 21 min
    Bit rate mode : Constant
    Bit rate : 640 kb/s
    Channel(s) : 6 channels
    Channel positions : Front: L C R, Side: L R, LFE
    Sampling rate : 48.0 kHz
    Frame rate : 31.250 FPS (1536 spf)
    Compression mode : Lossy
    Stream size : 371 MiB (10%)
    Title : Surround
    Language : Thai
    Default : No
    Forced : No

    Text #1
    ID : 4
    Format : PGS
    Codec ID : S_HDMV/PGS
    Codec ID/Info : Picture based subtitle format used on BDs/HD-DVDs
    Language : English
    Default : No
    Forced : No

    Text #2
    ID : 5
    Format : PGS
    Codec ID : S_HDMV/PGS
    Codec ID/Info : Picture based subtitle format used on BDs/HD-DVDs
    Language : English
    Default : No
    Forced : No

    Text #3
    ID : 6
    Format : PGS
    Codec ID : S_HDMV/PGS
    Codec ID/Info : Picture based subtitle format used on BDs/HD-DVDs
    Language : Thai
    Default : No
    Forced : No

    Text #4
    ID : 7
    Format : PGS
    Codec ID : S_HDMV/PGS
    Codec ID/Info : Picture based subtitle format used on BDs/HD-DVDs
    Language : Thai
    Default : No
    Forced : No

    เรื่องย่อ Toy story 2
    ในระหว่างที่แอนดี้ไปเข้าค่าย ฤดูร้อน วูดดี้ถูกอัล นักสะสมของเล่นจอมละโมบขโมยไป เพื่อเก็บให้ครบชุดคอลเล็คชั่นราวด์อัพแก๊ง ซึ่งกลายเป็นของหายากในปัจจุบัน เวลานี้ วูดดี้ พร้อมด้วยเจสซี่ บูลส์อาย และคุณลุงนักขุดทอง สติงกี้ พีท กำลังจะได้ไปอยู่ในพิพิธภัณฑ์ ซึ่งวูดดี้จะได้ใช้ชีวิตที่เหลือทั้งหมดของเขาในตู้ก ระจกไปตลอดกาล มันขึ้นอยู่กับบัซ ไลท์เยียร์ มิสเตอร์โปเตโต้เฮด แฮม เร็กซ์ และ สลิงกี้ ด็อก ที่จะช่วยเพื่อนเขากลับมาและย้ำเตือนสติวูดดี้ว่าการ เป็นของเล่นที่แท้จริง นั้นคืออะไร ภารกิจช่วยชีวิตเพื่อนรักจากการถูกส่งตัวไปพิพิธภัณฑ ์ของเล่น ซึ่งพวกเขาต้องผ่านเรื่องราวอันแสนยุ่งเหยิงครั้งแล้ วครั้งเล่า เพื่อที่จะพาวู้ดดี้กลับบ้านก่อนที่แอนดี้จะกลับมาจา กค่าย และได้เพื่อนใหม่ คือ เจสซี่ และ ม้า บุลส์อาย

    General
    Unique ID : 109779150049136655525959481743668584935 (0x5296B1FAEA1B98CDD306A1A8474AA1E7)
    Complete name : D:\[Mini - HD]Toy Story1- 3 (2010).mkv\[Mini-HD]Toy Story 2 (1999).mkv
    Format : Matroska
    Format version : Version 2
    File size : 4.36 GiB
    Duration : 1 h 32 min
    Overall bit rate : 6 748 kb/s
    Writing application -
    Writing library : Lavf55.12.0 / Lavf55.12.0

    Video
    ID : 1
    Format : AVC
    Format/Info : Advanced Video Codec
    Format profile : [email protected]
    Format settings, CABAC : Yes
    Format settings, ReFrames : 4 frames
    Codec ID : V_MPEG4/ISO/AVC
    Duration : 1 h 32 min
    Bit rate : 4 465 kb/s
    Width : 1 920 pixels
    Height : 1 080 pixels
    Display aspect ratio : 16:9
    Frame rate mode : Constant
    Frame rate : 23.976 (24000/1001) FPS
    Color space : YUV
    Chroma subsampling : 4:2:0
    Bit depth : 8 bits
    Scan type : Progressive
    Bits/(Pixel*Frame) : 0.090
    Stream size : 2.88 GiB (66%)
    Writing library : x264 core 142 r2479 dd79a61
    Encoding settings : cabac=1 / ref=1 / deblock=1:0:0 / analyse=0x1:0x111 / me=hex / subme=2 / psy=1 / psy_rd=1.00:0.00 / mixed_ref=0 / me_range=16 / chroma_me=1 / trellis=0 / 8x8dct=0 / cqm=0 / deadzone=21,11 / fast_pskip=1 / chroma_qp_offset=0 / threads=6 / lookahead_threads=2 / sliced_threads=0 / nr=0 / decimate=1 / interlaced=0 / bluray_compat=0 / constrained_intra=0 / bframes=3 / b_pyramid=2 / b_adapt=1 / b_bias=0 / direct=1 / weightb=1 / open_gop=0 / weightp=1 / keyint=240 / keyint_min=24 / scenecut=40 / intra_refresh=0 / rc_lookahead=10 / rc=crf / mbtree=1 / crf=20.0 / qcomp=0.60 / qpmin=0 / qpmax=69 / qpstep=4 / vbv_maxrate=20000 / vbv_bufsize=25000 / crf_max=0.0 / nal_hrd=none / filler=0 / ip_ratio=1.40 / aq=1:1.00
    Default : Yes
    Forced : No
    Color range : Limited
    Color primaries : BT.709
    Transfer characteristics : BT.709
    Matrix coefficients : BT.709

    Audio #1
    ID : 2
    Format : DTS
    Format/Info : Digital Theater Systems
    Format profile : ES Matrix / Core
    Mode : 16
    Format settings, Endianness : Big
    Codec ID : A_DTS
    Duration : 1 h 32 min
    Bit rate mode : Constant
    Bit rate : 1 509 kb/s
    Channel(s) : 7 channels / 6 channels
    Channel positions : Front: L C R, Side: L R, Back: C, LFE / Front: L C R, Side: L R, LFE
    Sampling rate : 48.0 kHz
    Frame rate : 93.750 FPS (512 spf)
    Bit depth : 24 bits
    Compression mode : Lossy
    Stream size : 997 MiB (22%)
    Title : Surround
    Language : English
    Default : Yes
    Forced : No

    Audio #2
    ID : 3
    Format : AC-3
    Format/Info : Audio Coding 3
    Mode extension : CM (complete main)
    Format settings, Endianness : Big
    Codec ID : A_AC3
    Duration : 1 h 32 min
    Bit rate mode : Constant
    Bit rate : 640 kb/s
    Channel(s) : 6 channels
    Channel positions : Front: L C R, Side: L R, LFE
    Sampling rate : 48.0 kHz
    Frame rate : 31.250 FPS (1536 spf)
    Compression mode : Lossy
    Stream size : 423 MiB (9%)
    Title : Surround
    Language : Thai
    Default : No
    Forced : No

    Text #1
    ID : 4
    Format : PGS
    Codec ID : S_HDMV/PGS
    Codec ID/Info : Picture based subtitle format used on BDs/HD-DVDs
    Language : English
    Default : No
    Forced : No

    Text #2
    ID : 5
    Format : PGS
    Codec ID : S_HDMV/PGS
    Codec ID/Info : Picture based subtitle format used on BDs/HD-DVDs
    Language : English
    Default : No
    Forced : No

    Text #3
    ID : 6
    Format : PGS
    Codec ID : S_HDMV/PGS
    Codec ID/Info : Picture based subtitle format used on BDs/HD-DVDs
    Language : Thai
    Default : No
    Forced : No

    Text #4
    ID : 7
    Format : PGS
    Codec ID : S_HDMV/PGS
    Codec ID/Info : Picture based subtitle format used on BDs/HD-DVDs
    Language : Thai
    Default : No
    Forced : No

    เรื่องย่อ Toy Story 3
    เรื่องราวการผจญภัยของเหล่าของเล่นของแอนดี้ ที่ประกอบไปด้วย วู้ดดี้, บัซ ไลท์เยียร์, เจสซี่, และแก๊งค์ของเล่นชุดเดิมไม่ว่าจะเป็น แฮมม์, เร็กซ์, สลิงกี้ด็อก, คุณและคุณนายโปเตโต้เฮด ซึ่งครั้งนี้แอนดี้ได้เติบโตขึ้นและจะต้องไปเรียนต่อ ทิ้งเหล่าของเล่นสุดโปรดของเขาไว้ โดยที่พวกเขาไม่รู้ถึงชะตากรรมว่าจะเป็นอย่างไรต่อไป จะต้องออกผจญภัยไปเจอกับอะไรอีกมากมาย นอกจากนี้แฟนๆยังจะได้พบกับของเล่นใหม่ๆที่ไม่เคยเห็ นมาก่อน แต่พวกเขาจะเป็นมิตรหรือศัตรู อันนี้ก็จะต้องไปลุ้นกัน

    General
    Unique ID : 59388498214446436278062358998938542117 (0x2CADCF0760EE31881FE695B5B95FE025)
    Complete name : D:\[Mini - HD]Toy Story1- 3 (2010).mkv\[Mini-HD]Toy Story 3 (2010).mkv
    Format : Matroska
    Format version : Version 2
    File size : 6.13 GiB
    Duration : 1 h 42 min
    Overall bit rate : 8 565 kb/s
    Writing application -
    Writing library : Lavf55.12.0 / Lavf55.12.0

    Video
    ID : 1
    Format : AVC
    Format/Info : Advanced Video Codec
    Format profile : [email protected]
    Format settings, CABAC : Yes
    Format settings, ReFrames : 4 frames
    Codec ID : V_MPEG4/ISO/AVC
    Duration : 1 h 42 min
    Bit rate : 4 737 kb/s
    Width : 1 920 pixels
    Height : 1 080 pixels
    Display aspect ratio : 16:9
    Frame rate mode : Constant
    Frame rate : 23.976 (24000/1001) FPS
    Color space : YUV
    Chroma subsampling : 4:2:0
    Bit depth : 8 bits
    Scan type : Progressive
    Bits/(Pixel*Frame) : 0.095
    Stream size : 3.39 GiB (55%)
    Writing library : x264 core 142 r2479 dd79a61
    Encoding settings : cabac=1 / ref=1 / deblock=1:0:0 / analyse=0x1:0x111 / me=hex / subme=2 / psy=1 / psy_rd=1.00:0.00 / mixed_ref=0 / me_range=16 / chroma_me=1 / trellis=0 / 8x8dct=0 / cqm=0 / deadzone=21,11 / fast_pskip=1 / chroma_qp_offset=0 / threads=6 / lookahead_threads=2 / sliced_threads=0 / nr=0 / decimate=1 / interlaced=0 / bluray_compat=0 / constrained_intra=0 / bframes=3 / b_pyramid=2 / b_adapt=1 / b_bias=0 / direct=1 / weightb=1 / open_gop=0 / weightp=1 / keyint=240 / keyint_min=24 / scenecut=40 / intra_refresh=0 / rc_lookahead=10 / rc=crf / mbtree=1 / crf=20.0 / qcomp=0.60 / qpmin=0 / qpmax=69 / qpstep=4 / vbv_maxrate=20000 / vbv_bufsize=25000 / crf_max=0.0 / nal_hrd=none / filler=0 / ip_ratio=1.40 / aq=1:1.00
    Default : Yes
    Forced : No
    Color range : Limited
    Color primaries : BT.709
    Transfer characteristics : BT.709
    Matrix coefficients : BT.709

    Audio #1
    ID : 2
    Format : DTS
    Format/Info : Digital Theater Systems
    Mode : 16
    Format settings, Endianness : Big
    Codec ID : A_DTS
    Duration : 1 h 42 min
    Bit rate mode : Constant
    Bit rate : 1 509 kb/s
    Channel(s) : 6 channels
    Channel positions : Front: L C R, Side: L R, LFE
    Sampling rate : 48.0 kHz
    Frame rate : 93.750 FPS (512 spf)
    Bit depth : 16 bits
    Compression mode : Lossy
    Stream size : 1.08 GiB (18%)
    Title : Surround
    Language : English
    Default : Yes
    Forced : No

    Audio #2
    ID : 3
    Format : DTS
    Format/Info : Digital Theater Systems
    Format profile : ES Matrix / Core
    Mode : 16
    Format settings, Endianness : Big
    Codec ID : A_DTS
    Duration : 1 h 42 min
    Bit rate mode : Constant
    Bit rate : 1 509 kb/s
    Channel(s) : 7 channels / 6 channels
    Channel positions : Front: L C R, Side: L R, Back: C, LFE / Front: L C R, Side: L R, LFE
    Sampling rate : 48.0 kHz
    Frame rate : 93.750 FPS (512 spf)
    Bit depth : 24 bits
    Compression mode : Lossy
    Stream size : 1.08 GiB (18%)
    Title : Surround
    Language : English
    Default : No
    Forced : No

    Audio #3
    ID : 4
    Format : AC-3
    Format/Info : Audio Coding 3
    Mode extension : CM (complete main)
    Format settings, Endianness : Big
    Codec ID : A_AC3
    Duration : 1 h 42 min
    Bit rate mode : Constant
    Bit rate : 640 kb/s
    Channel(s) : 6 channels
    Channel positions : Front: L C R, Side: L R, LFE
    Sampling rate : 48.0 kHz
    Frame rate : 31.250 FPS (1536 spf)
    Compression mode : Lossy
    Stream size : 469 MiB (7%)
    Title : Surround
    Language : Thai
    Default : No
    Forced : No

    Text #1
    ID : 5
    Format : PGS
    Codec ID : S_HDMV/PGS
    Codec ID/Info : Picture based subtitle format used on BDs/HD-DVDs
    Language : English
    Default : No
    Forced : No

    Text #2
    ID : 6
    Format : PGS
    Codec ID : S_HDMV/PGS
    Codec ID/Info : Picture based subtitle format used on BDs/HD-DVDs
    Language : English
    Default : No
    Forced : No

    Text #3
    ID : 7
    Format : PGS
    Codec ID : S_HDMV/PGS
    Codec ID/Info : Picture based subtitle format used on BDs/HD-DVDs
    Language : Thai
    Default : No
    Forced : No

    Download: cornfile
    [Mini-HD]Toy Story (1995).mkv - 3.5 GB
    [Mini-HD]Toy Story 2 (1999).mkv - 4.4 GB
    [Mini-HD]Toy Story 3 (2010).mkv - 6.1 GB
    Download: mekafile
    1 http://www.mekafile.com/dl.php?f=g2ce7fbJL9cW
    2 http://www.mekafile.com/dl.php?f=Lh8786bJL8SQ
    3 http://www.mekafile.com/dl.php?f=1s28a2bJL90D

  2. The Following User Says Thank You to Duckload.us For This Useful Post:

    kappa (10-21-2018)

+ Reply to Thread

Thread Information

Users Browsing this Thread

There are currently 1 users browsing this thread. (0 members and 1 guests)

     

Posting Permissions

  • You may not post new threads
  • You may not post replies
  • You may not post attachments
  • You may not edit your posts