+ Reply to Thread
Results 1 to 1 of 1
  1. #1
    Administrators Duckload.us's Avatar
    Join Date
    Dec 2010
    Posts
    93,419
    Thanks
    9
    Thanked 95,844 Times in 46,121 Posts

    Question [Italy]-On My Skin (2018) รอยแผลแห่งความยุติธรรม-1080p [Soundtrack(Italy) บรรยายไทย+อังกฤษ]





    Sulla mia pelle



    Rating: 6.4/10 Year: 2018 Genres: Drama Runtime: 100 min Language: Italian Director: Alessio Cremonini Writers: Alessio Cremonini / Lisa Nur Sultan Cast: Jasmine Trinca / Alessandro Borghi / Gianluca Caldironiโ€ฆ Plot:

    n/A



    ในภาพยนตร์สร้างจากเรื่องจริงเรื่องนี้ หลังสเตฟาโน่ คุกคีถูกจับในโรมด้วยข้อหายาเสพติด เขาต้องทนทุกข์จากการคุมขังในเวลาหนึ่งสัปดาห์ซึ่งจะ เปลี่ยนชีวิตครอบครัวของเขาไปตลอดกาล




    File size : 3.42 GiB
    Duration : 1 h 40 min
    Overall bit rate mode : Variable
    Overall bit rate : 4 887 kb/s
    Encoded date : UTC 2018-09-12 11:40:53
    Writing application : mkvmerge v26.0.0 ( In The Game ) 64-bit
    Writing library : libebml v1.3.6 + libmatroska v1.4.9

    Video
    ID : 1
    Format : AVC
    Format/Info : Advanced Video Codec
    Format profile : [email protected]
    Format settings : CABAC / 3 Ref Frames
    Format settings, CABAC : Yes
    Format settings, RefFrames : 3 frames
    Codec ID : V_MPEG4/ISO/AVC
    Duration : 1 h 40 min
    Bit rate mode : Variable
    Bit rate : 4 220 kb/s
    Maximum bit rate : 6 330 kb/s
    Width : 1 920 pixels
    Height : 1 080 pixels
    Display aspect ratio : 16:9
    Frame rate mode : Constant
    Frame rate : 24.000 FPS
    Color space : YUV
    Chroma subsampling : 4:2:0
    Bit depth : 8 bits
    Scan type : Progressive
    Bits/(Pixel*Frame) : 0.085
    Stream size : 2.95 GiB (86%)
    Writing library : x264 core 148 r2715 7e75228
    Encoding settings : cabac=1 / ref=3 / deblock=1:0:0 / analyse=0x1:0x111 / me=umh / subme=10 / psy=1 / psy_rd=1.00:0.00 / mixed_ref=1 / me_range=24 / chroma_me=1 / trellis=2 / 8x8dct=0 / cqm=0 / deadzone=21,11 / fast_pskip=1 / chroma_qp_offset=-2 / threads=8 / lookahead_threads=1 / sliced_threads=0 / nr=0 / decimate=1 / interlaced=0 / bluray_compat=0 / stitchable=1 / constrained_intra=0 / bframes=2 / b_pyramid=0 / b_adapt=2 / b_bias=0 / direct=3 / weightb=1 / open_gop=0 / weightp=2 / keyint=48 / keyint_min=25 / scenecut=0 / intra_refresh=0 / rc_lookahead=48 / rc=2pass / mbtree=1 / bitrate=4220 / ratetol=1.0 / qcomp=0.50 / qpmin=6 / qpmax=51 / qpstep=4 / cplxblur=20.0 / qblur=0.5 / vbv_maxrate=6330 / vbv_bufsize=8440 / nal_hrd=vbr / filler=0 / ip_ratio=1.40 / aq=1:1.00
    Default : Yes
    Forced : No

    Audio
    ID : 2
    Format : E-AC-3
    Format/Info : Enhanced AC-3
    Commercial name : Dolby Digital Plus
    Codec ID : A_EAC3
    Duration : 1 h 40 min
    Bit rate mode : Constant
    Bit rate : 640 kb/s
    Channel(s) : 6 channels
    Channel layout : L R C LFE Ls Rs
    Sampling rate : 48.0 kHz
    Frame rate : 31.250 FPS (1536 SPF)
    Compression mode : Lossy
    Stream size : 459 MiB (13%)
    Title : Italian
    Language : Italian
    Service kind : Complete Main
    Default : Yes
    Forced : No

    Text #1
    ID : 3
    Format : UTF-8
    Codec ID : S_TEXT/UTF8
    Codec ID/Info : UTF-8 Plain Text
    Duration : 1 h 36 min
    Bit rate : 50 b/s
    Count of elements : 997
    Stream size : 35.6 KiB (0%)
    Language : English
    Default : Yes
    Forced : No

    Text #2
    ID : 4
    Format : VobSub
    Muxing mode : zlib
    Codec ID : S_VOBSUB
    Codec ID/Info : Picture based subtitle format used on DVDs
    Duration : 1 h 36 min
    Bit rate : 6 116 b/s
    Count of elements : 997
    Stream size : 4.24 MiB (0%)
    Language : English
    Default : No
    Forced : No

    Text #3
    ID : 5
    Format : PGS
    Muxing mode : zlib
    Codec ID : S_HDMV/PGS
    Codec ID/Info : Picture based subtitle format used on BDs/HD-DVDs
    Duration : 1 h 36 min
    Bit rate : 28.8 kb/s
    Count of elements : 1994
    Stream size : 19.9 MiB (1%)
    Language : English
    Default : No
    Forced : No

    Text #4
    ID : 6
    Format : UTF-8
    Codec ID : S_TEXT/UTF8
    Codec ID/Info : UTF-8 Plain Text
    Duration : 1 h 36 min
    Bit rate : 109 b/s
    Count of elements : 998
    Stream size : 77.4 KiB (0%)
    Language : Thai
    Default : No
    Forced : No

    Text #5
    ID : 7
    Format : VobSub
    Muxing mode : zlib
    Codec ID : S_VOBSUB
    Codec ID/Info : Picture based subtitle format used on DVDs
    Duration : 1 h 36 min
    Bit rate : 5 656 b/s
    Count of elements : 998
    Stream size : 3.92 MiB (0%)
    Language : Thai
    Default : No
    Forced : No

    Text #6
    ID : 8
    Format : PGS
    Muxing mode : zlib
    Codec ID : S_HDMV/PGS
    Codec ID/Info : Picture based subtitle format used on BDs/HD-DVDs
    Duration : 1 h 36 min
    Bit rate : 32.1 kb/s
    Count of elements : 1996
    Stream size : 22.3 MiB (1%)
    Language : Thai
    Default : No
    Forced : No










    Download: cornfile
    http://cornfile.com/th43roabx7ha
    Download: mekafile
    http://www.mekafile.com/dl.php?f=pm7929bK2Lae

  2. The Following User Says Thank You to Duckload.us For This Useful Post:

    apichartdear (09-14-2018)

+ Reply to Thread

Thread Information

Users Browsing this Thread

There are currently 1 users browsing this thread. (0 members and 1 guests)

     

Posting Permissions

  • You may not post new threads
  • You may not post replies
  • You may not post attachments
  • You may not edit your posts