+ Reply to Thread
Results 1 to 2 of 2
  1. #1
    Administrators Duckload.us's Avatar
    Join Date
    Dec 2010
    Posts
    93,419
    Thanks
    9
    Thanked 95,844 Times in 46,121 Posts

    Question []-6 Days-6 ѹشմ (2017) ҡͧԧͧúءִʶҹٵҹШӡا ͹-WEB-DL.H.264.1080p. [Modified]-[ҡ-ѧ ѧ]

    ˹ѧաҷ繤ṹԨó ´͹ҧ§˵ءóԧ (ºŨҡԡԾ) ͹˹ѧҾҧʶҹТͧͧ ˭ͧ͡ҧ͡ҨШѴü͡´ ¡èͨѭҴ¤عçûԴ 觶ؤѨغѹҨǷҧ èҵͧѺ͡索Ҵ Шзá͡¡繷ҧ͡ ˵ءó˹ѧѹ繻դ.. 1980 ؤºẺ Ҩ ҡ ᷪ ¡ѰբͧҪҳҨѡâй͡ѡ Ҿ索Ҵ㹡ûҺ͡¡ѹ 繡ûԴҨѺǻСѹ ʹͺ蹴Թ

    PLOT

    ѹ 30 ¹ դ.. 1980 Դ˵ؼ͡ 6 ءִʶҹٵҹШӡا͹͹ ѰŵͧѺ˵ءó ѹ ҡèҵͧշҡ˹ SAS (Special Air Service) ҨҡյǻСѹªԵ







    Format : Matroska
    Format version : Version 4 / Version 2
    File size : 3.35 GiB
    Duration : 1 h 34 min
    Overall bit rate : 5 085 kb/s
    Writing application : mkvmerge v26.0.0 ( In The Game ) 64-bit
    Writing library : libebml v1.3.6 + libmatroska v1.4.9

    Video
    ID : 1
    Format : AVC
    Format/Info : Advanced Video Codec
    Format profile : [email protected]
    Format settings, CABAC : Yes
    Format settings, ReFrames : 5 frames
    Codec ID : V_MPEG4/ISO/AVC
    Duration : 1 h 34 min
    Bit rate : 4 572 kb/s
    Width : 1 920 pixels
    Height : 792 pixels
    Display aspect ratio : 2.40:1
    Frame rate mode : Constant
    Frame rate : 23.976 (23976/1000) FPS
    Color space : YUV
    Chroma subsampling : 4:2:0
    Bit depth : 8 bits
    Scan type : Progressive
    Bits/(Pixel*Frame) : 0.125
    Stream size : 3.01 GiB (90%)
    Language : English
    Color range : Limited
    Color primaries : BT.709
    Transfer characteristics : BT.709
    Matrix coefficients : BT.709

    Audio #1
    ID : 2
    Format : AC-3
    Format/Info : Audio Coding 3
    Mode extension : CM (complete main)
    Format settings, Endianness : Big
    Codec ID : A_AC3
    Duration : 1 h 34 min
    Bit rate mode : Constant
    Bit rate : 384 kb/s
    Channel(s) : 6 channels
    Channel positions : Front: L C R, Side: L R, LFE
    Sampling rate : 48.0 kHz
    Frame rate : 31.250 FPS (1536 spf)
    Compression mode : Lossy
    Delay relative to video : -42 ms
    Stream size : 259 MiB (8%)
    Title : 6.Days.2017.1080p.WEB-DL.DD5.1.H264-FGT
    Language : English
    Default : No
    Forced : No

    Audio #2
    ID : 3
    Format : AAC
    Format/Info : Advanced Audio Codec
    Format profile : LC
    Codec ID : A_AAC
    Duration : 1 h 34 min
    Bit rate : 126 kb/s
    Channel(s) : 2 channels
    Channel positions : Front: L R
    Sampling rate : 44.1 kHz
    Frame rate : 43.066 FPS (1024 spf)
    Compression mode : Lossy
    Delay relative to video : -41 ms
    Stream size : 84.8 MiB (2%)
    Language : Thai
    Default : Yes
    Forced : No

    Text #1
    ID : 4
    Format : UTF-8
    Codec ID : S_TEXT/UTF8
    Codec ID/Info : UTF-8 Plain Text
    Duration : 1 h 29 min
    Bit rate : 99 b/s
    Count of elements : 1012
    Stream size : 65.3 KiB (0%)
    Language : English
    Default : No
    Forced : No

    Text #2
    ID : 5
    Format : UTF-8
    Codec ID : S_TEXT/UTF8
    Codec ID/Info : UTF-8 Plain Text
    Duration : 1 h 1 min
    Bit rate : 1 b/s
    Count of elements : 25
    Stream size : 590 Bytes (0%)
    Title : FORCED
    Language : English
    Default : Yes
    Forced : Yes

    Menu
    00:00:00.000 : en:01
    00:06:02.000 : en:02
    00:12:02.000 : en:03
    00:18:02.000 : en:04
    00:24:07.000 : en:05
    00:30:04.000 : en:06
    00:36:09.000 : en:07
    00:42:05.000 : en:08
    00:49:00.000 : en:09
    00:54:19.000 : en:10
    01:00:54.000 : en:11
    01:06:31.000 : en:12
    01:12:10.000 : en:13
    01:18:05.000 : en:14
    01:24:10.000 : en:15
    01:30:15.000 : en:16





    Download: cornfile
    http://cornfile.com/zt6ab49jnoyt
    Download: mekafile
    http://www.mekafile.com/dl.php?f=F29e7fbK5GDW

  2. The Following 5 Users Say Thank You to Duckload.us For This Useful Post:

    amorn wichian (09-14-2018), apichartdear (09-15-2018), bigbang06 (09-14-2018), MidNightt (09-16-2018), noi54 (09-15-2018)

  3. #2
    Senior Member
    Join Date
    Aug 2013
    Posts
    205
    Thanks
    2
    Thanked 1 Time in 1 Post
    sub thai ¤Ѻ

Thread Information

Users Browsing this Thread

There are currently 1 users browsing this thread. (0 members and 1 guests)

     

Posting Permissions

  • You may not post new threads
  • You may not post replies
  • You may not post attachments
  • You may not edit your posts