+ Reply to Thread
Results 1 to 2 of 2
  1. #1
    Administrators Duckload.us's Avatar
    Join Date
    Dec 2010
    Posts
    94,116
    Thanks
    9
    Thanked 96,587 Times in 46,448 Posts

    Question [ฝรั่ง][Mini-HD][มาใหม่ ร้อนๆ ภาพคมชัด]-The Meg เม็ก โคตรหลามพันล้านปี [KORSUB]-WEB-DL.H.264.1080p. [Modified]-[พากย์ไทยโรง]-[พากย์อังกฤษ]



    [ฝรั่ง][Mini-HD][มาใหม่ ร้อนๆ ภาพคมชัด]-The Meg เม็ก โคตรหลามพันล้านปี [KORSUB]-WEB-DL.H.264.1080p. [Modified]-[พากย์ไทยโรง]-[พากย์อังกฤษ]

    เรื่องย่อ The Meg ดัดแปลงมาจากหนังสือของนักเขียน สตีฟ อัลเทน (Steve Alten) ที่บอกเล่าเรื่องราวของฉลามยักษ์เม็กกาโลดอนในตำนาน ที่มีขนาดใหญ่ถึง 70 ฟุต น้ำหนักกว่า 40 ตัน เหล่านักวิทยาศาสตร์ชาวจีนจะนำพวกเราลงไปสำรวจโลกใต้ ท้องทะเลลึก ที่ซึ่งพวกเขาจะต้องพบกับความอันตรายที่ไม่เคยรู้จัก มาก่อน พวกเขาต้องติดอยู่ภายใต้ร่องลึกก้นสมุทรมาเรียนา พร้อมกับเวลาที่ค่อย ๆ ผ่านไป โจนาส เทย์เลอร์ (เจสัน สเตแธม) อดีตนาวิกโยธินผู้เชี่ยวชาญการดำน้ำลึกถูกว่าจ้างโดย ดร.จาง ซูหยิน ผู้นำโปรแกรมการสำรวจโลกใต้ท้องมหาสมุทร ให้มารับภารกิจเสี่ยงตาย เมื่อหลายปีก่อน เทย์เลอร์ก็เคยเผชิญหน้ากับความน่ากลัวแบบนี้มาก่อนแ ล้ว ตอนนั้นภารกิจของเขาล้มเหลว และเขาต้องสูญเสียลูกทีมไปกว่าครึ่ง มันเป็นความอัปยศอดสู และเขาต้องถูกปลดจากงานอย่างน่าอับอาย ตอนนี้มันถึงเวลาแล้วที่เทย์เลอร์จะต้องกลับมาเผชิญห น้ากับความกลัว และภัยอันตรายด้วยตัวของเขาเอง เพื่อช่วยเหลือคนอื่น ๆ ที่ติดอยู่ใต้ท้องสมุทรนั้น... เขาจะต้องเผชิญหน้ากับนักล่าที่แข็งแกร่งที่สุดตลอดก าลอีกครั้ง!

    The Meg (2018) เม็ก โคตรหลามพันล้านปี

    ภาพชัด เกาหลี เสียงไทยโรง 2.0 ชัดเจน


    Video

    ID : 1

    Format : AVC

    Format/Info : Advanced Video Codec

    Format profile : [email protected]

    Format settings : CABAC / 4 Ref Frames

    Format settings, CABAC : Yes

    Format settings, RefFrames : 4 frames

    Codec ID : V_MPEG4/ISO/AVC

    Duration : 1 h 49 min

    Bit rate : 4 500 kb/s

    Width : 1 920 pixels

    Height : 804 pixels

    Display aspect ratio : 2.40:1

    Frame rate mode : Constant

    Frame rate : 24.000 FPS

    Color space : YUV

    Chroma subsampling : 4:2:0

    Bit depth : 8 bits

    Scan type : Progressive

    Bits/(Pixel*Frame) : 0.121

    Stream size : 3.41 GiB (91%)

    Title : The.Meg.2018.1080p.KORSUB.HDRip.x264.AC3.THR2.0_Sc arlett98

    Writing library : x264 core 148 r2795M aaa9aa8

    Encoding settings : cabac=1 / ref=4 / deblock=1:0:0 / analyse=0x3:0x113 / me=umh / subme=9 / psy=1 / psy_rd=1.00:0.00 / mixed_ref=1 / me_range=16 / chroma_me=1 / trellis=2 / 8x8dct=1 / cqm=0 / deadzone=21,11 / fast_pskip=1 / chroma_qp_offset=-2 / threads=40 / lookahead_threads=3 / sliced_threads=0 / nr=0 / decimate=1 / interlaced=0 / bluray_compat=0 / constrained_intra=0 / bframes=3 / b_pyramid=2 / b_adapt=2 / b_bias=0 / direct=3 / weightb=1 / open_gop=0 / weightp=2 / keyint=250 / keyint_min=24 / scenecut=40 / intra_refresh=0 / rc_lookahead=50 / rc=abr / mbtree=1 / bitrate=4500 / ratetol=1.0 / qcomp=0.60 / qpmin=0 / qpmax=69 / qpstep=4 / ip_ratio=1.40 / aq=1:1.00

    Default : Yes

    Forced : No



    Audio #1

    ID : 2

    Format : AC-3

    Format/Info : Audio Coding 3

    Codec ID : A_AC3

    Duration : 1 h 49 min

    Bit rate mode : Constant

    Bit rate : 192 kb/s

    Channel(s) : 2 channels

    Channel positions : Front: L R

    Sampling rate : 48.0 kHz

    Frame rate : 31.250 FPS (1536 SPF)

    Bit depth : 16 bits

    Compression mode : Lossy

    Delay relative to video : -38 ms

    Stream size : 150 MiB (4%)

    Title : Thai Rong 2.0 Modified By Scarlett98

    Language : Thai

    Service kind : Complete Main

    Default : Yes

    Forced : No



    Audio #2

    ID : 3

    Format : AAC

    Format/Info : Advanced Audio Codec

    Format profile : LC

    Codec ID : A_AAC-2

    Duration : 1 h 49 min

    Bit rate : 256 kb/s

    Channel(s) : 2 channels

    Channel positions : Front: L R

    Sampling rate : 44.1 kHz

    Frame rate : 43.066 FPS (1024 SPF)

    Compression mode : Lossy

    Delay relative to video : -38 ms

    Stream size : 200 MiB (5%)

    Title : English 2.0

    Language : English

    Default : No

    Forced : No















    Download: cornfile
    http://cornfile.com/z3hshj2jp3fp
    Download: mekafile
    http://www.mekafile.com/dl.php?f=vwe3a7bKrqnQ

  2. #2
    Senior Member
    Join Date
    Jun 2014
    Posts
    274
    Thanks
    0
    Thanked 0 Times in 0 Posts
    ขอบคุณครับ

+ Reply to Thread

Thread Information

Users Browsing this Thread

There are currently 1 users browsing this thread. (0 members and 1 guests)

     

Posting Permissions

  • You may not post new threads
  • You may not post replies
  • You may not post attachments
  • You may not edit your posts