+ Reply to Thread
Results 1 to 2 of 2
  1. #1
    Administrators Duckload.us's Avatar
    Join Date
    Dec 2010
    Posts
    97,026
    Thanks
    9
    Thanked 98,415 Times in 47,352 Posts

    Question [ฝรั่ง]-[#ใหม่! ชัดชนโรง] Hell Fest (2018) สวนสนุกนรก #[หนังซูม] : [พากย์ไทยโรง 2.0 + เสียงอังกฤษ 2.0] : [720p HDCAM] : [Modified]



    #Hell Fest (2018) สวนสนุกนรก
    #ใหม่ร้อนๆ! หนังซูมชัดชนโรง เสียงไทยโรง 2.0

    Hell Fest (2018) สวนสนุกนรก
    #เรื่องย่อ : เมื่อฆาตกรต่อเนื่องโรคจิตรายหนึ่งที่เปลี่ยนสวนสนุก ธีมสยองขวัญให้กลายเป็นโรงเชือดสุดซาดิสม์ส่วนตัว สามสาวผู้โชคร้าย นาตาลี (เอมี่ ฟอร์ซิธ จาก The Path, Channel Zero), บรู๊ค (รีนน์ เอ็ดเวิร์ด จาก MacGyver) และ เทย์เลอร์ (เบ็กซ์ เทย์เลอร์-คลอส จาก Scream) ที่ติดกับหลงเข้าไปจึงต้องช่วยกันหาทางเอาชีวิตรอดก่ อนที่จะกลายเป็นเหยื่อความวิปลาศรายล่าสุดของมัน !!!

    Video
    ID : 1
    Format : AVC
    Format/Info : Advanced Video Codec
    Format profile : [email protected]
    Format settings : CABAC / 5 Ref Frames
    Format settings, CABAC : Yes
    Format settings, RefFrames : 5 frames
    Codec ID : V_MPEG4/ISO/AVC
    Duration : 1 h 23 min
    Bit rate mode : Variable
    Bit rate : 3 968 kb/s
    Maximum bit rate : 18.0 Mb/s
    Width : 1 280 pixels
    Height : 644 pixels
    Display aspect ratio : 1.988
    Frame rate mode : Constant
    Frame rate : 29.970 (30000/1001) FPS
    Standard : Component
    Color space : YUV
    Chroma subsampling : 4:2:0
    Bit depth : 8 bits
    Scan type : Progressive
    Bits/(Pixel*Frame) : 0.161
    Stream size : 2.31 GiB (90%)
    Title : Hellfest.2018.720p.HDCAM.x264.AC3.THR2.0_Scarlett9 8
    Writing library : x264 core 148
    Encoding settings : cabac=1 / ref=5 / deblock=1:0:0 / analyse=0x3:0x113 / me=hex / subme=7 / psy=1 / psy_rd=1.00:0.00 / mixed_ref=1 / me_range=16 / chroma_me=1 / trellis=1 / 8x8dct=1 / cqm=1 / deadzone=21,11 / fast_pskip=1 / chroma_qp_offset=-2 / threads=12 / lookahead_threads=2 / sliced_threads=0 / slices=1 / nr=0 / decimate=1 / interlaced=0 / minigop=0 / stitchable=1 / constrained_intra=0 / bframes=3 / b_pyramid=0 / b_adapt=1 / b_bias=0 / direct=1 / weightb=1 / open_gop=0 / weightp=2 / keyint=250 / keyint_min=25 / scenecut=40 / intra_refresh=0 / rc_lookahead=40 / rc=abr / mbtree=1 / bitrate=3968 / ratetol=1.0 / qcomp=0.60 / qpmin=3 / qpmax=69 / qpstep=4 / vbv_maxrate=18000 / vbv_bufsize=18000 / nal_hrd=vbr / filler=0 / ip_ratio=1.40 / aq=1:1.00
    Default : Yes
    Forced : No
    Color range : Limited
    Color primaries : BT.709
    Transfer characteristics : BT.709
    Matrix coefficients : BT.709

    Audio #1
    ID : 2
    Format : AC-3
    Format/Info : Audio Coding 3
    Codec ID : A_AC3
    Duration : 1 h 23 min
    Bit rate mode : Constant
    Bit rate : 192 kb/s
    Channel(s) : 2 channels
    Channel positions : Front: L R
    Sampling rate : 48.0 kHz
    Frame rate : 31.250 FPS (1536 SPF)
    Bit depth : 16 bits
    Compression mode : Lossy
    Stream size : 114 MiB (4%)
    Title : Thai Rong 2.0 Modified By Scarlett98
    Language : Thai
    Service kind : Complete Main
    Default : Yes
    Forced : No

    Audio #2
    ID : 3
    Format : AC-3
    Format/Info : Audio Coding 3
    Codec ID : A_AC3
    Duration : 1 h 23 min
    Bit rate mode : Constant
    Bit rate : 224 kb/s
    Channel(s) : 2 channels
    Channel positions : Front: L R
    Sampling rate : 48.0 kHz
    Frame rate : 31.250 FPS (1536 SPF)
    Bit depth : 16 bits
    Compression mode : Lossy
    Stream size : 134 MiB (5%)
    Title : English 2.0
    Language : English
    Service kind : Complete Main
    Default : No
    Forced : No





    Download: cornfile
    http://cornfile.com/le40t3leteyh
    Download: mekafile
    http://www.mekafile.com/dl.php?f=ah5307bLc6Or

  2. The Following User Says Thank You to Duckload.us For This Useful Post:

    Wesker_TOT (10-12-2018)

  3. #2
    Senior Member
    Join Date
    Jun 2014
    Posts
    372
    Thanks
    0
    Thanked 0 Times in 0 Posts
    ขอบคุณครับ

+ Reply to Thread

Thread Information

Users Browsing this Thread

There are currently 1 users browsing this thread. (0 members and 1 guests)

     

Posting Permissions

  • You may not post new threads
  • You may not post replies
  • You may not post attachments
  • You may not edit your posts