เนื้อเรื่องย่อ
The Incredibles บอกเล่าการผจญภัยของครอบครัวอดีตซูเปอร์ฮีโร่ ที่ค้นพบแหล่งพลังที่แท้จริงของพวกเขา ..จากกันและกัน บ็อบ พาร์ หรือ มิสเตอร์อินเครดิเบิ้ล (ให้เสียงพากย์โดย เครก ที. เนลสัน) ซึ่งครั้งหนึ่งเคยเป็นผู้ขจัดอาชญากรรมนิรนามมือหนึ่ ง ผู้ที่ได้ต่อสู้กับวายร้าย และช่วยชีวิตผู้คนเป็นกิจวัตรประจำวัน แต่สิบห้าปีให้หลัง เขาและ เฮเลน (ให้เสียงพากย์โดย ฮอลลี ฮันเตอร์) ภรรยาของเขา ผู้เป็นอดีตซูเปอร์ฮีโร่ที่มีชื่อเสียงเช่นเดียวกัน ถูกบังคับให้ต้องใช้ชีวิตแบบคนปกติสามัญในแถบชานเมือ ง ปัจจุบันนี้ พวกเขาใช้ชีวิตเหมือนมนุษย์เดินดินธรรมดา และใช้ชีวิตอย่างปกติสุขกับลูกๆ ที่พยายามทำตัว "ปกติ" ในแบบของตัวเอง ในฐานะพนักงานประกันภัยกินเงินเดือน สิ่งเดียวที่บ็อบต้องต่อสู้ในทุกวันนี้คือความเบื่อห น่าย และรอบเอวที่นับวันมีแต่จะยืดขยายมากขึ้น

ซูเปอร์ฮีโร่ตกงานที่ใฝ่ฝันอยากจะผดุงความยุติธรรม พบโอกาสของเขาเมื่อมีเสียงลึกลับ ติดต่อให้เขาไปยังเกาะที่ห่างไกลผู้คน เพื่อรับมอบหมายภารกิจลับสุดยอด บัดนี้ ด้วยชะตากรรมของโลกเป็นเดิมพัน ครอบครัวอดีตซูเปอร์ฮีโร่จึงต้องประสานกำลังกันเป็นห นึ่งเดียว และค้นหาพลังพิเศษในครอบครัวพวกเขา


General
Unique ID : 175795299296149038085283414484268984577 (0x8440F16EFB53656CAFA63A502001A901)
Complete name : H:\[Mini HD] The Incredibles 1-2 (2004)-(2018).mkv\[Mini HD] The Incredibles (2004).mkv\[Mini HD] The Incredibles (2004).mkv
Format : Matroska
Format version : Version 4 / Version 2
File size : 4.26 GiB
Duration : 1 h 55 min
Overall bit rate : 5 279 kb/s
Encoded date : UTC 2018-11-03 04:58:52 / UTC 2018-11-02T17:55:00Z
Writing application : mkvmerge v8.3.0 ('Over the Horizon') 64bit
Writing library : libebml v1.3.1 + libmatroska v1.4.2 / Lavf55.12.0

Video
ID : 1
Format : AVC
Format/Info : Advanced Video Codec
Format profile : [email protected]
Format settings, CABAC : Yes
Format settings, ReFrames : 4 frames
Codec ID : V_MPEG4/ISO/AVC
Bit rate : 3 024 kb/s
Width : 1 920 pixels
Height : 802 pixels
Display aspect ratio : 2.40:1
Frame rate mode : Variable
Color space : YUV
Chroma subsampling : 4:2:0
Bit depth : 8 bits
Scan type : Progressive
Writing library : x264 core 142 r2479 dd79a61
Encoding settings : cabac=1 / ref=1 / deblock=1:0:0 / analyse=0x1:0x111 / me=hex / subme=2 / psy=1 / psy_rd=1.00:0.00 / mixed_ref=0 / me_range=16 / chroma_me=1 / trellis=0 / 8x8dct=0 / cqm=0 / deadzone=21,11 / fast_pskip=1 / chroma_qp_offset=0 / threads=6 / lookahead_threads=2 / sliced_threads=0 / nr=0 / decimate=1 / interlaced=0 / bluray_compat=0 / constrained_intra=0 / bframes=3 / b_pyramid=2 / b_adapt=1 / b_bias=0 / direct=1 / weightb=1 / open_gop=0 / weightp=1 / keyint=240 / keyint_min=24 / scenecut=40 / intra_refresh=0 / rc_lookahead=10 / rc=crf / mbtree=1 / crf=20.0 / qcomp=0.60 / qpmin=0 / qpmax=69 / qpstep=4 / vbv_maxrate=20000 / vbv_bufsize=25000 / crf_max=0.0 / nal_hrd=none / filler=0 / ip_ratio=1.40 / aq=1:1.00
Language : Thai
Default : Yes
Forced : Yes
Color range : Limited
Color primaries : BT.709
Transfer characteristics : BT.709
Matrix coefficients : BT.709
Statistics Tags Issue : mkvmerge v8.3.0 ('Over the Horizon') 64bit 2018-11-03 04:58:52 / mkvmerge v8.3.0 ('Over the Horizon') 64bit 2018-11-03 04:58:52 / UTC 2018-11-02T17:55:00Z
FromStats_BitRate : 3057604
FromStats_Duration : 01:55:25.853000000
FromStats_FrameCount : 166053
FromStats_StreamSize : 2647065258

Audio #1
ID : 2
Format : DTS
Format/Info : Digital Theater Systems
Format profile : ES Matrix / Core
Mode : 16
Format settings, Endianness : Big
Codec ID : A_DTS
Duration : 1 h 55 min
Bit rate mode : Constant
Bit rate : 1 509 kb/s
Channel(s) : 7 channels / 6 channels
Channel positions : Front: L C R, Side: L R, Back: C, LFE / Front: L C R, Side: L R, LFE
Sampling rate : 48.0 kHz
Frame rate : 93.750 FPS (512 spf)
Bit depth : 24 bits
Compression mode : Lossy
Stream size : 1.22 GiB (29%)
Title : Surround
Language : English
Default : No
Forced : No
Statistics Tags Issue : mkvmerge v8.3.0 ('Over the Horizon') 64bit 2018-11-03 04:58:52 / mkvmerge v8.3.0 ('Over the Horizon') 64bit 2018-11-03 04:58:52 / UTC 2018-11-02T17:55:00Z
FromStats_BitRate : 1508999
FromStats_Duration : 01:55:25.825000000
FromStats_FrameCount : 649296
FromStats_StreamSize : 1306383552

Audio #2
ID : 3
Format : AC-3
Format/Info : Audio Coding 3
Mode extension : CM (complete main)
Format settings, Endianness : Big
Codec ID : A_AC3
Duration : 1 h 55 min
Bit rate mode : Constant
Bit rate : 640 kb/s
Channel(s) : 6 channels
Channel positions : Front: L C R, Side: L R, LFE
Sampling rate : 48.0 kHz
Frame rate : 31.250 FPS (1536 spf)
Compression mode : Lossy
Stream size : 528 MiB (12%)
Title : Surround
Language : Thai
Default : Yes
Forced : Yes
Statistics Tags Issue : mkvmerge v8.3.0 ('Over the Horizon') 64bit 2018-11-03 04:58:52 / mkvmerge v8.3.0 ('Over the Horizon') 64bit 2018-11-03 04:58:52 / UTC 2018-11-02T17:55:00Z
FromStats_BitRate : 640000
FromStats_Duration : 01:55:25.760000000
FromStats_FrameCount : 216430
FromStats_StreamSize : 554060800

Text #1
ID : 4
Format : PGS
Muxing mode : zlib
Codec ID : S_HDMV/PGS
Codec ID/Info : Picture based subtitle format used on BDs/HD-DVDs
Language : English
Default : No
Forced : No
Statistics Tags Issue : mkvmerge v8.3.0 ('Over the Horizon') 64bit 2018-11-03 04:58:52 / mkvmerge v8.3.0 ('Over the Horizon') 64bit 2018-11-03 04:58:52 / UTC 2018-11-02T17:55:00Z
FromStats_BitRate : 22980
FromStats_Duration : 01:46:59.704000000
FromStats_FrameCount : 2666
FromStats_StreamSize : 18440663

Text #2
ID : 5
Format : PGS
Muxing mode : zlib
Codec ID : S_HDMV/PGS
Codec ID/Info : Picture based subtitle format used on BDs/HD-DVDs
Language : Thai
Default : No
Forced : No
Statistics Tags Issue : mkvmerge v8.3.0 ('Over the Horizon') 64bit 2018-11-03 04:58:52 / mkvmerge v8.3.0 ('Over the Horizon') 64bit 2018-11-03 04:58:52 / UTC 2018-11-02T17:55:00Z
FromStats_BitRate : 7120
FromStats_Duration : 01:47:15.804000000
FromStats_FrameCount : 2380
FromStats_StreamSize : 5728619

Text #3
ID : 6
Format : PGS
Muxing mode : zlib
Codec ID : S_HDMV/PGS
Codec ID/Info : Picture based subtitle format used on BDs/HD-DVDs
Language : Thai
Default : No
Forced : No
Statistics Tags Issue : mkvmerge v8.3.0 ('Over the Horizon') 64bit 2018-11-03 04:58:52 / mkvmerge v8.3.0 ('Over the Horizon') 64bit 2018-11-03 04:58:52 / UTC 2018-11-02T17:55:00Z
FromStats_BitRate : 24269
FromStats_Duration : 01:47:13.635000000
FromStats_FrameCount : 2386
FromStats_StreamSize : 19517907

Text #4
ID : 7
Format : VobSub
Muxing mode : zlib
Codec ID : S_VOBSUB
Codec ID/Info : Picture based subtitle format used on DVDs
Language : English
Default : No
Forced : No
Statistics Tags Issue : mkvmerge v8.3.0 ('Over the Horizon') 64bit 2018-11-03 04:58:52 / mkvmerge v8.3.0 ('Over the Horizon') 64bit 2018-11-03 04:58:52 / UTC 2018-11-02T17:55:00Z
FromStats_BitRate : 6295
FromStats_Duration : 01:46:59.695000000
FromStats_FrameCount : 1333
FromStats_StreamSize : 5051868

Text #5
ID : 8
Format : VobSub
Muxing mode : zlib
Codec ID : S_VOBSUB
Codec ID/Info : Picture based subtitle format used on DVDs
Language : Thai
Default : Yes
Forced : Yes
Statistics Tags Issue : mkvmerge v8.3.0 ('Over the Horizon') 64bit 2018-11-03 04:58:52 / mkvmerge v8.3.0 ('Over the Horizon') 64bit 2018-11-03 04:58:52 / UTC 2018-11-02T17:55:00Z
FromStats_BitRate : 6775
FromStats_Duration : 01:47:13.625000000
FromStats_FrameCount : 1193
FromStats_StreamSize : 5449187

Text #6
ID : 9
Format : VobSub
Muxing mode : zlib
Codec ID : S_VOBSUB
Codec ID/Info : Picture based subtitle format used on DVDs
Language : Thai
Default : No
Forced : No
Statistics Tags Issue : mkvmerge v8.3.0 ('Over the Horizon') 64bit 2018-11-03 04:58:52 / mkvmerge v8.3.0 ('Over the Horizon') 64bit 2018-11-03 04:58:52 / UTC 2018-11-02T17:55:00Z
FromStats_BitRate : 6797
FromStats_Duration : 01:47:13.625000000
FromStats_FrameCount : 1193
FromStats_StreamSize : 5466720








เ รื่ อ ง ย่ อ / S y n o p s i s
แน่นอนว่าการกลับมาในครั้งนี้ก็ต้องไม่ธรรมดาตามประส าครอบครัวพลังพิเศษ เพราะ Incredibles 2 จะเป็นเรื่องราวสุดป่วนชวนปวดหัว เมื่อป๊ะป๋าบ๊อบ พาร์ ตัดสินใจวางชุดซูเปอร์ฮีโร่แล้วใช้ชีวิตเลี้ยงดูลูก ๆ แบบมนุษย์ธรรมดาทั่วไป ในขณะที่หม่าม้าเฮเลน พาร์ เลือกสานต่ออุดมการณ์ในฐานะซูเปอร์ฮีโร่ร่วมมือกับ โฟรโซน เพื่อ ออกปฏิบัติภารกิจกำจัดวายร้าย เดอะอันเดอร์ไมเนอร์ ต่อไป เท่านี้ยังไม่พอเพราะทุกคนต้องรับมือกับพลังพิเศษที่ ควบคุมไม่ได้ของสมาชิกใหม่ตัวน้อย เบบี๋แจ็ก-แจ็ก อีกด้วย

เตรียมหัวเราะไปกับการสลับบทบาทแบบกลับตาลปัตรสุดขั้ วของสองฮีโร่และความวุ่นวายในการใช้ชีวิตแบบมนุษย์ธร รมดาที่ไม่ธรรมดาของสมาชิกครอบครัวพาร์ นำทีมโดย บ๊อบ, เฮเลน, ไวโอเลต, แดช และเจ้าตัวน้อย แจ็ก-แจ็ก


General
Unique ID : 193284761407179115395538708541346192166 (0x91694A7D95E4395BB4FD2A2360949B26)
Complete name : I:\[Mini HD] The Incredibles 1-2 (2004)-(2018).mkv\[Mini HD] The Incredibles 2 (2018).mkv\[Mini HD] The Incredibles 2 (2018).mkv
Format : Matroska
Format version : Version 4 / Version 2
File size : 4.13 GiB
Duration : 1 h 57 min
Overall bit rate : 5 022 kb/s
Encoded date : UTC 2018-11-03 08:17:06 / UTC 2018-11-03T06:37:00Z
Writing application : mkvmerge v8.3.0 ('Over the Horizon') 64bit
Writing library : libebml v1.3.1 + libmatroska v1.4.2 / Lavf55.12.0

Video
ID : 1
Format : AVC
Format/Info : Advanced Video Codec
Format profile : [email protected]
Format settings, CABAC : Yes
Format settings, ReFrames : 4 frames
Codec ID : V_MPEG4/ISO/AVC
Duration : 1 h 57 min
Bit rate : 2 773 kb/s
Width : 1 920 pixels
Height : 804 pixels
Display aspect ratio : 2.40:1
Frame rate mode : Constant
Frame rate : 23.976 (24000/1001) FPS
Color space : YUV
Chroma subsampling : 4:2:0
Bit depth : 8 bits
Scan type : Progressive
Bits/(Pixel*Frame) : 0.075
Stream size : 2.28 GiB (55%)
Writing library : x264 core 142 r2479 dd79a61
Encoding settings : cabac=1 / ref=1 / deblock=1:0:0 / analyse=0x1:0x111 / me=hex / subme=2 / psy=1 / psy_rd=1.00:0.00 / mixed_ref=0 / me_range=16 / chroma_me=1 / trellis=0 / 8x8dct=0 / cqm=0 / deadzone=21,11 / fast_pskip=1 / chroma_qp_offset=0 / threads=6 / lookahead_threads=2 / sliced_threads=0 / nr=0 / decimate=1 / interlaced=0 / bluray_compat=0 / constrained_intra=0 / bframes=3 / b_pyramid=2 / b_adapt=1 / b_bias=0 / direct=1 / weightb=1 / open_gop=0 / weightp=1 / keyint=240 / keyint_min=24 / scenecut=40 / intra_refresh=0 / rc_lookahead=10 / rc=crf / mbtree=1 / crf=21.0 / qcomp=0.60 / qpmin=0 / qpmax=69 / qpstep=4 / vbv_maxrate=20000 / vbv_bufsize=25000 / crf_max=0.0 / nal_hrd=none / filler=0 / ip_ratio=1.40 / aq=1:1.00
Language : Thai
Default : Yes
Forced : Yes
Color range : Limited
Color primaries : BT.709
Transfer characteristics : BT.709
Matrix coefficients : BT.709
Statistics Tags Issue : mkvmerge v8.3.0 ('Over the Horizon') 64bit 2018-11-03 08:17:06 / mkvmerge v8.3.0 ('Over the Horizon') 64bit 2018-11-03 08:17:06 / UTC 2018-11-03T06:37:00Z
FromStats_BitRate : 2839088
FromStats_Duration : 01:57:50.103000000
FromStats_FrameCount : 169513
FromStats_StreamSize : 2509080848

Audio #1
ID : 2
Format : DTS
Format/Info : Digital Theater Systems
Mode : 16
Format settings, Endianness : Big
Codec ID : A_DTS
Duration : 1 h 57 min
Bit rate mode : Constant
Bit rate : 1 509 kb/s
Channel(s) : 6 channels
Channel positions : Front: L C R, Side: L R, LFE
Sampling rate : 48.0 kHz
Frame rate : 93.750 FPS (512 spf)
Bit depth : 24 bits
Compression mode : Lossy
Delay relative to video : -81 ms
Stream size : 1.24 GiB (30%)
Language : English
Default : No
Forced : No
Statistics Tags Issue : mkvmerge v8.3.0 ('Over the Horizon') 64bit 2018-11-03 08:17:06 / mkvmerge v8.3.0 ('Over the Horizon') 64bit 2018-11-03 08:17:06 / UTC 2018-11-03T06:37:00Z
FromStats_BitRate : 1509002
FromStats_Duration : 01:57:50.198000000
FromStats_FrameCount : 662831
FromStats_StreamSize : 1333618452

Audio #2
ID : 3
Format : AC-3
Format/Info : Audio Coding 3
Mode extension : CM (complete main)
Format settings, Endianness : Big
Codec ID : A_AC3
Duration : 1 h 57 min
Bit rate mode : Constant
Bit rate : 640 kb/s
Channel(s) : 6 channels
Channel positions : Front: L C R, Side: L R, LFE
Sampling rate : 48.0 kHz
Frame rate : 31.250 FPS (1536 spf)
Compression mode : Lossy
Stream size : 539 MiB (13%)
Title : Surround
Language : Thai
Default : Yes
Forced : Yes
Statistics Tags Issue : mkvmerge v8.3.0 ('Over the Horizon') 64bit 2018-11-03 08:17:06 / mkvmerge v8.3.0 ('Over the Horizon') 64bit 2018-11-03 08:17:06 / UTC 2018-11-03T06:37:00Z
FromStats_BitRate : 640000
FromStats_Duration : 01:57:50.048000000
FromStats_FrameCount : 220939
FromStats_StreamSize : 565603840

Text #1
ID : 4
Format : PGS
Muxing mode : zlib
Codec ID : S_HDMV/PGS
Codec ID/Info : Picture based subtitle format used on BDs/HD-DVDs
Language : English
Default : No
Forced : No
Statistics Tags Issue : mkvmerge v8.3.0 ('Over the Horizon') 64bit 2018-11-03 08:17:06 / mkvmerge v8.3.0 ('Over the Horizon') 64bit 2018-11-03 08:17:06 / UTC 2018-11-03T06:37:00Z
FromStats_BitRate : 12982
FromStats_Duration : 01:56:09.674000000
FromStats_FrameCount : 3522
FromStats_StreamSize : 11310625

Text #2
ID : 5
Format : PGS
Muxing mode : zlib
Codec ID : S_HDMV/PGS
Codec ID/Info : Picture based subtitle format used on BDs/HD-DVDs
Language : Thai
Default : No
Forced : No
Statistics Tags Issue : mkvmerge v8.3.0 ('Over the Horizon') 64bit 2018-11-03 08:17:06 / mkvmerge v8.3.0 ('Over the Horizon') 64bit 2018-11-03 08:17:06 / UTC 2018-11-03T06:37:00Z
FromStats_BitRate : 8058
FromStats_Duration : 01:56:09.674000000
FromStats_FrameCount : 3526
FromStats_StreamSize : 7020522

Text #3
ID : 6
Format : VobSub
Muxing mode : zlib
Codec ID : S_VOBSUB
Codec ID/Info : Picture based subtitle format used on DVDs
Language : English
Default : No
Forced : No
Statistics Tags Issue : mkvmerge v8.3.0 ('Over the Horizon') 64bit 2018-11-03 08:17:06 / mkvmerge v8.3.0 ('Over the Horizon') 64bit 2018-11-03 08:17:06 / UTC 2018-11-03T06:37:00Z
FromStats_BitRate : 6997
FromStats_Duration : 01:46:26.749000000
FromStats_FrameCount : 1754
FromStats_StreamSize : 5586089

Text #4
ID : 7
Format : VobSub
Muxing mode : zlib
Codec ID : S_VOBSUB
Codec ID/Info : Picture based subtitle format used on DVDs
Language : Thai
Default : Yes
Forced : Yes
Statistics Tags Issue : mkvmerge v8.3.0 ('Over the Horizon') 64bit 2018-11-03 08:17:06 / mkvmerge v8.3.0 ('Over the Horizon') 64bit 2018-11-03 08:17:06 / UTC 2018-11-03T06:37:00Z
FromStats_BitRate : 4551
FromStats_Duration : 01:46:26.749000000
FromStats_FrameCount : 1757
FromStats_StreamSize : 3633591





Download: cornfile
[Mini HD] The Incredibles (2004).mkv - 4.3 GB
[Mini HD] The Incredibles 2 (2018).mkv - 4.1 GB
Download: mekafile
1 http://www.mekafile.com/dl.php?f=u23782bM9PfF
2 http://www.mekafile.com/dl.php?f=fO2f57bM9Pmd