+ Reply to Thread
Results 1 to 6 of 6
  1. #1
    Senior Member
    Join Date
    Feb 2018
    Posts
    855
    Thanks
    0
    Thanked 315 Times in 225 Posts

    Arrow [★ใหม่มาสเตอร์★] [FULL-HD] / [Mini-HD] Alpha (2018) : ผจญนรกแดนทมิฬ 20,000 ปี [เสียง:ไทย 5.1 มาสเตอร์,อังกฤษ DTS - บรรยาย:ไทย,อังกฤษ] [เสียงไทย + ซับไทย MASTER +ซับไทย PGS ]









    Mini HD

    ★ ☆ ✮[email protected]✮ ☆ ★.mkv
    Format : Matroska
    Format version : Version 4 / Version 2
    File size : 2.85 GiB
    Duration : 1 h 36 min
    Overall bit rate : 4 234 kb/s
    Movie name : ★ ☆ ✮[email protected]✮ ☆ ★
    Encoded date : UTC 2018-11-12 05:57:36
    Writing application : mkvmerge v28.2.0 ('The Awakening') 64-bit
    Writing library : libebml v1.3.6 + libmatroska v1.4.9
    Cover : Yes
    Attachments : cover.jpg

    Video
    ID : 1
    Format : AVC
    Format/Info : Advanced Video Codec
    Format profile : [email protected]
    Format settings, CABAC : Yes
    Format settings, RefFrames : 5 frames
    Codec ID : V_MPEG4/ISO/AVC
    Duration : 1 h 36 min
    Bit rate : 3 000 kb/s
    Width : 1 920 pixels
    Height : 800 pixels

    Display aspect ratio : 2.40:1
    Frame rate mode : Constant
    Frame rate : 23.976 (24000/1001) FPS
    Color space : YUV
    Chroma subsampling : 4:2:0
    Bit depth : 8 bits
    Scan type : Progressive
    Bits/(Pixel*Frame) : 0.081
    Stream size : 2.02 GiB (71%)
    Title : ★ ☆ ✮Modified By @enthdmovieclub✮ ☆ ★
    Writing library : x264 core 155 r2901 7d0ff22
    Encoding settings : cabac=1 / ref=5 / deblock=1:-1:-1 / analyse=0x3:0x133 / me=umh / subme=9 / psy=1 / psy_rd=1.00:0.15 / mixed_ref=1 / me_range=16 / chroma_me=1 / trellis=2 / 8x8dct=1 / cqm=0 / deadzone=21,11 / fast_pskip=0 / chroma_qp_offset=-3 / threads=12 / lookahead_threads=1 / sliced_threads=0 / nr=0 / decimate=1 / interlaced=0 / bluray_compat=0 / constrained_intra=0 / bframes=3 / b_pyramid=2 / b_adapt=2 / b_bias=0 / direct=3 / weightb=1 / open_gop=0 / weightp=2 / keyint=250 / keyint_min=23 / scenecut=40 / intra_refresh=0 / rc_lookahead=60 / rc=2pass / mbtree=1 / bitrate=3000 / ratetol=1.0 / qcomp=0.60 / qpmin=0 / qpmax=69 / qpstep=4 / cplxblur=20.0 / qblur=0.5 / ip_ratio=1.40 / aq=1:1.00
    Language : English
    Default : Yes
    Forced : No

    Audio #1
    ID : 2
    Format : AC-3
    Format/Info : Audio Coding 3
    Format settings, Endianness : Big
    Codec ID : A_AC3
    Duration : 1 h 36 min
    Bit rate mode : Constant
    Bit rate : 448 kb/s
    Channel(s) : 6 channels
    Channel positions : Front: L C R, Side: L R, LFE
    Sampling rate : 48.0 kHz
    Frame rate : 31.250 FPS (1536 SPF)
    Bit depth : 16 bits
    Compression mode : Lossy
    Delay relative to video : 1 s 0 ms
    Stream size : 309 MiB (11%)
    Title : Thai AC3 5.1 DVD Master
    Language : Thai

    Service kind : Complete Main
    Default : Yes
    Forced : Yes

    Audio #2
    ID : 3
    Format : DTS
    Format/Info : Digital Theater Systems
    Mode : 16
    Format settings, Endianness : Big
    Codec ID : A_DTS
    Duration : 1 h 36 min
    Bit rate mode : Constant
    Bit rate : 768 kb/s
    Channel(s) : 6 channels
    Channel positions : Front: L C R, Side: L R, LFE
    Sampling rate : 48.0 kHz
    Frame rate : 93.750 FPS (512 SPF)
    Bit depth : 24 bits
    Compression mode : Lossy
    Stream size : 530 MiB (18%)
    Title : Eng DTS 5.1
    Language : English

    Default : No
    Forced : No

    Text #1
    ID : 4
    Format : UTF-8
    Codec ID : S_TEXT/UTF8
    Codec ID/Info : UTF-8 Plain Text
    Duration : 1 h 28 min
    Bit rate : 7 b/s
    Count of elements : 220
    Stream size : 4.57 KiB (0%)
    Title : Eng
    Language : English
    Default : No
    Forced : No

    Text #2
    ID : 5
    Format : PGS
    Muxing mode : zlib
    Codec ID : S_HDMV/PGS
    Codec ID/Info : Picture based subtitle format used on BDs/HD-DVDs
    Duration : 1 h 34 min
    Bit rate : 4 504 b/s
    Count of elements : 430
    Stream size : 3.04 MiB (0%)
    Title : Thai PGS Tahoma
    Language : Thai

    Default : No
    Forced : No

    Text #3
    ID : 6
    Format : PGS
    Muxing mode : zlib
    Codec ID : S_HDMV/PGS
    Codec ID/Info : Picture based subtitle format used on BDs/HD-DVDs
    Duration : 1 h 34 min
    Bit rate : 4 504 b/s
    Count of elements : 430
    Stream size : 3.04 MiB (0%)
    Title : Thai PGS Tahoma LOW
    Language : Thai
    Default : No
    Forced : No

    Text #4
    ID : 7
    Format : PGS
    Muxing mode : zlib
    Codec ID : S_HDMV/PGS
    Codec ID/Info : Picture based subtitle format used on BDs/HD-DVDs
    Duration : 1 h 34 min
    Bit rate : 4 841 b/s
    Count of elements : 430
    Stream size : 3.27 MiB (0%)
    Title : Thai PGS Cordia
    Language : Thai

    Default : No
    Forced : No

    Text #5
    ID : 8
    Format : PGS
    Muxing mode : zlib
    Codec ID : S_HDMV/PGS
    Codec ID/Info : Picture based subtitle format used on BDs/HD-DVDs
    Duration : 1 h 34 min
    Bit rate : 4 841 b/s
    Count of elements : 430
    Stream size : 3.27 MiB (0%)
    Title : Thai PGS Cordia LOW
    Language : Thai
    Default : No
    Forced : No

    Text #6
    ID : 9
    Format : PGS
    Muxing mode : zlib
    Codec ID : S_HDMV/PGS
    Codec ID/Info : Picture based subtitle format used on BDs/HD-DVDs
    Duration : 1 h 34 min
    Bit rate : 4 649 b/s
    Count of elements : 430
    Stream size : 3.14 MiB (0%)
    Title : Thai PGS Angsana
    Language : Thai

    Default : Yes
    Forced : Yes

    Text #7
    ID : 10
    Format : PGS
    Muxing mode : zlib
    Codec ID : S_HDMV/PGS
    Codec ID/Info : Picture based subtitle format used on BDs/HD-DVDs
    Duration : 1 h 34 min
    Bit rate : 4 649 b/s
    Count of elements : 430
    Stream size : 3.14 MiB (0%)
    Title : Thai PGS Angsana LOW
    Language : Thai
    Default : No
    Forced : No

    Text #8
    ID : 11
    Format : VobSub
    Muxing mode : zlib
    Codec ID : S_VOBSUB
    Codec ID/Info : Picture based subtitle format used on DVDs
    Duration : 1 h 34 min
    Bit rate : 997 b/s
    Count of elements : 215
    Stream size : 689 KiB (0%)
    Title : Thai 1080p
    Language : Thai
    Default : No
    Forced : No

    Text #9
    ID : 12
    Format : VobSub
    Muxing mode : zlib
    Codec ID : S_VOBSUB
    Codec ID/Info : Picture based subtitle format used on DVDs
    Duration : 1 h 34 min
    Bit rate : 997 b/s
    Count of elements : 215
    Stream size : 689 KiB (0%)
    Title : Thai 1080p LOW
    Language : Thai
    Default : No
    Forced : No

    Text #10
    ID : 13
    Format : VobSub
    Muxing mode : zlib
    Codec ID : S_VOBSUB
    Codec ID/Info : Picture based subtitle format used on DVDs
    Duration : 1 h 34 min
    Bit rate : 412 b/s
    Count of elements : 215
    Stream size : 285 KiB (0%)
    Title : Thai 480p
    Language : Thai
    Default : No
    Forced : No

    ★ ☆ ✮Modified By @enthdmovieclub✮ ☆ ★




    Full HD

    ★ ☆ ✮[email protected]✮ ☆ ★.mkv
    Format : Matroska
    Format version : Version 4 / Version 2
    File size : 8.59 GiB
    Duration : 1 h 36 min
    Overall bit rate : 12.7 Mb/s
    Movie name : ★ ☆ ✮[email protected]✮ ☆ ★
    Encoded date : UTC 2018-11-12 12:05:08
    Writing application : mkvmerge v13.0.0 ('The Juggler') 64bit
    Writing library : libebml v1.3.4 + libmatroska v1.4.5
    Cover : Yes
    Attachments : cover.jpg

    Video
    ID : 1
    Format : AVC
    Format/Info : Advanced Video Codec
    Format profile : [email protected]
    Format settings : CABAC / 4 Ref Frames
    Format settings, CABAC : Yes
    Format settings, ReFrames : 4 frames
    Codec ID : V_MPEG4/ISO/AVC
    Duration : 1 h 36 min
    Bit rate : 10.8 Mb/s
    Width : 1 920 pixels
    Height : 804 pixels

    Display aspect ratio : 2.40:1
    Frame rate mode : Constant
    Frame rate : 23.976 (24000/1001) FPS
    Color space : YUV
    Chroma subsampling : 4:2:0
    Bit depth : 8 bits
    Scan type : Progressive
    Bits/(Pixel*Frame) : 0.291
    Stream size : 7.26 GiB (84%)
    Title : ★ ☆ ✮Modified By @enthdmovieclub✮ ☆ ★
    Writing library : x264 core 155 r2867+74 66b5600 t_mod_Custom_2 [[email protected] X86_64]
    Encoding settings : cabac=1 / ref=4 / deblock=1:-3:-3 / analyse=0x3:0x113 / me=umh / subme=10 / psy=1 / fade_compensate=0.00 / psy_rd=0.90:0.10 / mixed_ref=1 / me_range=48 / chroma_me=1 / trellis=2 / 8x8dct=1 / cqm=0 / deadzone=21,11 / fast_pskip=0 / chroma_qp_offset=-2 / threads=12 / lookahead_threads=2 / sliced_threads=0 / nr=0 / decimate=1 / interlaced=0 / bluray_compat=0 / constrained_intra=0 / fgo=0 / bframes=8 / b_pyramid=2 / b_adapt=2 / b_bias=0 / direct=3 / weightb=1 / open_gop=0 / weightp=2 / keyint=250 / keyint_min=23 / scenecut=40 / intra_refresh=0 / rc_lookahead=40 / rc=crf / mbtree=0 / crf=18.0000 / qcomp=0.70 / qpmin=0:0:0 / qpmax=69:69:69 / qpstep=4 / vbv_maxrate=35000 / vbv_bufsize=35000 / crf_max=0.0 / nal_hrd=none / filler=0 / ip_ratio=1.40 / pb_ratio=1.30 / aq=3:0.90 / aq-sensitivity=10.00 / aq-factor=1.00:1.00:1.00 / aq2=0 / aq3=2:[0.50:0.50]:[0.50:0.50]:[0.50:0.50]:[0.50:0.50] / aq3-sensitivity=10.00 / aq3-factor=[1.00:1.00]:[1.00:1.00]:[1.00:1.00] / aq3-boundary=192:64:24
    Language : English
    Default : Yes
    Forced : No
    Color range : Limited
    Matrix coefficients : BT.709

    Audio #1
    ID : 2
    Format : AC-3
    Format/Info : Audio Coding 3
    Commercial name : Dolby Digital
    Codec ID : A_AC3
    Duration : 1 h 36 min
    Bit rate mode : Constant
    Bit rate : 448 kb/s
    Channel(s) : 6 channels
    Channel layout : L R C LFE Ls Rs
    Sampling rate : 48.0 kHz
    Frame rate : 31.250 FPS (1536 SPF)
    Bit depth : 16 bits
    Compression mode : Lossy
    Delay relative to video : 1 s 0 ms
    Stream size : 309 MiB (4%)
    Title : Thai AC3 5.1 DVD Master
    Language : Thai

    Service kind : Complete Main
    Default : Yes
    Forced : Yes

    Audio #2
    ID : 3
    Format : DTS
    Format/Info : Digital Theater Systems
    Codec ID : A_DTS
    Duration : 1 h 36 min
    Bit rate mode : Constant
    Bit rate : 1 509 kb/s
    Channel(s) : 6 channels
    Channel layout : C L R Ls Rs LFE
    Sampling rate : 48.0 kHz
    Frame rate : 93.750 FPS (512 SPF)
    Bit depth : 24 bits
    Compression mode : Lossy
    Stream size : 1.02 GiB (12%)
    Title : Eng DTS 5.1
    Language : English

    Default : No
    Forced : No

    Text #1
    ID : 4
    Format : UTF-8
    Codec ID : S_TEXT/UTF8
    Codec ID/Info : UTF-8 Plain Text
    Duration : 1 h 28 min
    Bit rate : 7 b/s
    Count of elements : 220
    Stream size : 4.57 KiB (0%)
    Title : Eng
    Language : English
    Default : No
    Forced : No

    Text #2
    ID : 5
    Format : PGS
    Muxing mode : zlib
    Codec ID : S_HDMV/PGS
    Codec ID/Info : Picture based subtitle format used on BDs/HD-DVDs
    Duration : 1 h 34 min
    Bit rate : 4 504 b/s
    Count of elements : 430
    Stream size : 3.04 MiB (0%)
    Title : Thai PGS Tahoma
    Language : Thai

    Default : No
    Forced : No

    Text #3
    ID : 6
    Format : PGS
    Muxing mode : zlib
    Codec ID : S_HDMV/PGS
    Codec ID/Info : Picture based subtitle format used on BDs/HD-DVDs
    Duration : 1 h 34 min
    Bit rate : 4 504 b/s
    Count of elements : 430
    Stream size : 3.04 MiB (0%)
    Title : Thai PGS Tahoma LOW
    Language : Thai
    Default : No
    Forced : No

    Text #4
    ID : 7
    Format : PGS
    Muxing mode : zlib
    Codec ID : S_HDMV/PGS
    Codec ID/Info : Picture based subtitle format used on BDs/HD-DVDs
    Duration : 1 h 34 min
    Bit rate : 4 841 b/s
    Count of elements : 430
    Stream size : 3.27 MiB (0%)
    Title : Thai PGS Cordia
    Language : Thai

    Default : No
    Forced : No

    Text #5
    ID : 8
    Format : PGS
    Muxing mode : zlib
    Codec ID : S_HDMV/PGS
    Codec ID/Info : Picture based subtitle format used on BDs/HD-DVDs
    Duration : 1 h 34 min
    Bit rate : 4 841 b/s
    Count of elements : 430
    Stream size : 3.27 MiB (0%)
    Title : Thai PGS Cordia LOW
    Language : Thai
    Default : No
    Forced : No

    Text #6
    ID : 9
    Format : PGS
    Muxing mode : zlib
    Codec ID : S_HDMV/PGS
    Codec ID/Info : Picture based subtitle format used on BDs/HD-DVDs
    Duration : 1 h 34 min
    Bit rate : 4 649 b/s
    Count of elements : 430
    Stream size : 3.14 MiB (0%)
    Title : Thai PGS Angsana
    Language : Thai

    Default : Yes
    Forced : Yes

    Text #7
    ID : 10
    Format : PGS
    Muxing mode : zlib
    Codec ID : S_HDMV/PGS
    Codec ID/Info : Picture based subtitle format used on BDs/HD-DVDs
    Duration : 1 h 34 min
    Bit rate : 4 649 b/s
    Count of elements : 430
    Stream size : 3.14 MiB (0%)
    Title : Thai PGS Angsana LOW
    Language : Thai
    Default : No
    Forced : No

    Text #8
    ID : 11
    Format : VobSub
    Muxing mode : zlib
    Codec ID : S_VOBSUB
    Codec ID/Info : Picture based subtitle format used on DVDs
    Duration : 1 h 34 min
    Bit rate : 997 b/s
    Count of elements : 215
    Stream size : 689 KiB (0%)
    Title : Thai 1080p
    Language : Thai
    Default : No
    Forced : No

    Text #9
    ID : 12
    Format : VobSub
    Muxing mode : zlib
    Codec ID : S_VOBSUB
    Codec ID/Info : Picture based subtitle format used on DVDs
    Duration : 1 h 34 min
    Bit rate : 997 b/s
    Count of elements : 215
    Stream size : 689 KiB (0%)
    Title : Thai 1080p LOW
    Language : Thai
    Default : No
    Forced : No

    Text #10
    ID : 13
    Format : VobSub
    Muxing mode : zlib
    Codec ID : S_VOBSUB
    Codec ID/Info : Picture based subtitle format used on DVDs
    Duration : 1 h 34 min
    Bit rate : 412 b/s
    Count of elements : 215
    Stream size : 285 KiB (0%)
    Title : Thai 480p
    Language : Thai
    Default : No
    Forced : No

    ★ ☆ ✮Modified By @enthdmovieclub✮ ☆ ★




    นี่คือการผจญภัยครั้งยิ่งใหญ่ที่เกิดขึ้นในช่วงยุคน้ ำแข็งครั้งล่าสุด ในยุโรป เมื่อ 20,000 ปีก่อน ในขณะที่เขาเริ่มต้นการล่าสัตว์เป็นครั้งแรกกับเผ่าข องเขา
    เด็กหนุ่มได้รับบาดเจ็บสาหัส ก่อนจะได้สติกลับมาแล้วรู้สึกตัวว่าขาของเขาหักอยู่อ ย่างโดดเดี่ยว เขาต้องเรียนรู้ที่จะเอาตัวรอด
    และใช้ชีวิตอยู่ในดินแดนอันแสนทุรกันดาร เขาบังเอิญได้พบกับหมาป่าที่ถูกขับออกจากฝูง ทั้งคู่ได้เรียนรู้ที่จะกลายเป็นคู่หูกัน
    พร้อมฟันฝ่าอันตรายนับไม่ถ้วน และเดิมพันชีวิตเพื่อหาหนทางกลับไปยังบ้านของพวกเขา ก่อนที่ลมหนาวแห่งความตายจะมาถึง!!!


    ---------------------------------------------------------------------------------------------------------------

    ***ข้อแนะนำในการโหลดไฟล์จากเว็บต่างๆ***

    ###ควรใช้ IDM ในการโหลด และควรตั้งค่าเริ่มต้นเชื่อมต่อ ตั้งแต่ 8 ขึ้นไป ส่วนในกรณีที่ IDM ไม่ขึ้นตอนกดโหลดให้ติดตั้งส่วนขยายของ IDM ในเบราว์เซอร์ที่ใช้ ##





    MiniHD

    http://cornfile.com/9joywkduork0

    Full HD

    http://cornfile.com/5np3epfxo2so


    >>สมัคร VIP cornfile <<

    >> วิธีสมัคร VIP cornfile <<



    MINI-HD

    1 PART

    DOWNLOAD



    ติดตามอัพเดตเรื่องอื่นๆได้ที่

    https://enthdmovieclub.blogspot.com/

  2. The Following User Says Thank You to @@[email protected]@ For This Useful Post:

    PUNKROCK (03-15-2019)

  3. #2
    Senior Member
    Join Date
    Jul 2012
    Posts
    5,928
    Thanks
    0
    Thanked 0 Times in 0 Posts
    ขอบคุณมากจ้า

  4. #3
    Junior Member
    Join Date
    Oct 2012
    Posts
    4
    Thanks
    0
    Thanked 0 Times in 0 Posts
    google drive ไม่มีไฟล์ นะครับ มรึงหลอกดาวววววววววววววววว
    https://drive.google.com/uc?id=1FS5_...xport=download

  5. #4
    Senior Member
    Join Date
    Feb 2018
    Posts
    855
    Thanks
    0
    Thanked 315 Times in 225 Posts
    Quote Originally Posted by kitisaklom View Post
    google drive ไม่มีไฟล์ นะครับ มรึงหลอกดาวววววววววววววววว
    https://drive.google.com/uc?id=1FS5_...xport=download
    ไฟล์เก่าลบไปแล้วครับ ไม่ได้หลอกดาวอะไร โพสต์ไว้นานแล้ว ลองดูของท่านอื่น ที่เป็นไฟล์เสียงไทยซับไทย bluray master ดูครับ ไฟล์ตัวนี้โมไว้นานแล้วยังเป็นเสียงไทยซับ dvd อยู่

  6. #5
    Senior Member PUNKROCK's Avatar
    Join Date
    Jul 2011
    Posts
    1,236
    Thanks
    1,121
    Thanked 0 Times in 0 Posts
    . สุขกายเเละสุขใจ เด้อ ครับพี่
    PUNKROCK NEVERDIE

  7. #6
    Member
    Join Date
    Jul 2011
    Posts
    30
    Thanks
    0
    Thanked 0 Times in 0 Posts
    ลองอันนี้ครับ ผมลองแล้วใช้ได้ One2up
    http://www.duckload.ws/forum/showthr...pha+%282018%29

+ Reply to Thread

Thread Information

Users Browsing this Thread

There are currently 1 users browsing this thread. (0 members and 1 guests)

     

Tags for this Thread

Posting Permissions

  • You may not post new threads
  • You may not post replies
  • You may not post attachments
  • You may not edit your posts