Video
ID : 1
Format : HEVC
Format/Info : High Efficiency Video Coding
Format profile : Main [email protected]@High
Codec ID : V_MPEGH/ISO/HEVC
Duration : 1 h 8 min
Bit rate : 41.2 Mb/s
Width : 3 840 pixels
Height : 2 160 pixels
Display aspect ratio : 16:9
Frame rate mode : Constant
Frame rate : 23.976 (24000/1001) FPS
Color space : YUV
Chroma subsampling : 4:2:0 (Type 2)
Bit depth : 10 bits
Bits/(Pixel*Frame) : 0.207
Stream size : 19.6 GiB (91%)
Title : 4K HDR 10BIT BT.2020 - WESTWORLD SEASON 1 (2016) - EP.1 BLURAY MASTER @HENRYKAI - 幻押嗑澡莲押闼凌肆
Default : Yes
Forced : No
Color range : Limited
Color primaries : BT.2020
Transfer characteristics : PQ
Matrix coefficients : BT.2020 non-constant
Mastering display color primaries : R: x=0.680000 y=0.320000, G: x=0.265000 y=0.690000, B: x=0.150000 y=0.060000, White point: x=0.312700 y=0.329000
Mastering display luminance : min: 0.0050 cd/m2, max: 4000.0000 cd/m2
Maximum Content Light Level : 999 cd/m2
Maximum Frame-Average Light Level : 100 cd/m2

Audio #1
ID : 2
Format : TrueHD
Format profile : TrueHD+Atmos / TrueHD
Codec ID : A_TRUEHD
Duration : 1 h 8 min
Bit rate mode : Variable
Bit rate : 3 671 kb/s
Maximum bit rate : 6 873 kb/s
Channel(s) : Object Based / 8 channels
Channel positions : Object Based / Front: L C R, Side: L R, Back: L R, LFE
Sampling rate : / 48.0 kHz
Frame rate : 1 200.000 FPS (40 SPF)
Compression mode : Lossless
Delay relative to video : 1 ms
Stream size : 1.75 GiB (8%)
Language : English
Default : Yes
Forced : No

Audio #2
ID : 3
Format : AC-3
Format/Info : Audio Coding 3
Format settings, Endianness : Big
Codec ID : A_AC3
Duration : 1 h 8 min
Bit rate mode : Constant
Bit rate : 448 kb/s
Channel(s) : 6 channels
Channel positions : Front: L C R, Side: L R, LFE
Sampling rate : 48.0 kHz
Frame rate : 31.250 FPS (1536 SPF)
Bit depth : 16 bits
Compression mode : Lossy
Delay relative to video : 1 ms
Stream size : 218 MiB (1%)
Language : English
Service kind : Complete Main
Default : No
Forced : No

Text #1
ID : 4
Format : PGS
Muxing mode : zlib
Codec ID : S_HDMV/PGS
Codec ID/Info : Picture based subtitle format used on BDs/HD-DVDs
Duration : 1 h 8 min
Bit rate : 32.7 kb/s
Count of elements : 1658
Stream size : 15.9 MiB (0%)
Title : ENG PGS 4K ORIGINAL BLURAY MASTER @HENRYKAI
Language : English
Default : No
Forced : No

Text #2
ID : 5
Format : PGS
Muxing mode : zlib
Codec ID : S_HDMV/PGS
Codec ID/Info : Picture based subtitle format used on BDs/HD-DVDs
Duration : 1 h 5 min
Bit rate : 46.5 kb/s
Count of elements : 1366
Stream size : 21.8 MiB (0%)
Title : THAI PGS @HENRYKAI
Language : Thai
Default : Yes
Forced : No

Text #3
ID : 6
Format : PGS
Muxing mode : zlib
Codec ID : S_HDMV/PGS
Codec ID/Info : Picture based subtitle format used on BDs/HD-DVDs
Duration : 1 h 5 min
Bit rate : 41.2 kb/s
Count of elements : 1366
Stream size : 19.3 MiB (0%)
Title : THAI PGS @HENRYKAI
Language : Thai
Default : No
Forced : No

Text #4
ID : 7
Format : PGS
Muxing mode : zlib
Codec ID : S_HDMV/PGS
Codec ID/Info : Picture based subtitle format used on BDs/HD-DVDs
Duration : 1 h 5 min
Bit rate : 27.9 kb/s
Count of elements : 1366
Stream size : 13.1 MiB (0%)
Title : THAI 1080P @HENRYKAI
Language : Thai
Default : No
Forced : No

Text #5
ID : 8
Format : PGS
Muxing mode : zlib
Codec ID : S_HDMV/PGS
Codec ID/Info : Picture based subtitle format used on BDs/HD-DVDs
Duration : 1 h 5 min
Bit rate : 46.6 kb/s
Count of elements : 1366
Stream size : 21.8 MiB (0%)
Title : THAI PGS YELLOW @HENRYKAI
Language : Thai
Default : No
Forced : No

Text #6
ID : 9
Format : PGS
Muxing mode : zlib
Codec ID : S_HDMV/PGS
Codec ID/Info : Picture based subtitle format used on BDs/HD-DVDs
Duration : 1 h 5 min
Bit rate : 41.2 kb/s
Count of elements : 1366
Stream size : 19.3 MiB (0%)
Title : THAI PGS YELLOW @HENRYKAI
Language : Thai
Default : No
Forced : No

Menu
00:00:00.000 : en:Chapter 1
00:01:46.606 : en:Chapter 2
00:14:13.894 : en:Chapter 3
00:22:40.233 : en:Chapter 4
00:33:13.449 : en:Chapter 5
00:43:00.369 : en:Chapter 6
00:54:43.780 : en:Chapter 7
01:06:50.256 : en:Chapter 8








Cr : @HENRYKAI

Download: cornfile
4K HDR 10BIT BT.2020 - WESTWORLD SEASON 1 (2016) - EP.1.mkv - 21.6 GB
4K HDR 10BIT BT.2020 - WESTWORLD SEASON 1 (2016) - EP.10 END.mkv - 28.6 GB
4K HDR 10BIT BT.2020 - WESTWORLD SEASON 1 (2016) - EP.2.mkv - 17.9 GB
4K HDR 10BIT BT.2020 - WESTWORLD SEASON 1 (2016) - EP.3.mkv - 17.7 GB
4K HDR 10BIT BT.2020 - WESTWORLD SEASON 1 (2016) - EP.4.mkv - 18.5 GB
4K HDR 10BIT BT.2020 - WESTWORLD SEASON 1 (2016) - EP.5.mkv - 18.0 GB
4K HDR 10BIT BT.2020 - WESTWORLD SEASON 1 (2016) - EP.6.mkv - 18.1 GB
4K HDR 10BIT BT.2020 - WESTWORLD SEASON 1 (2016) - EP.7.mkv - 17.8 GB
4K HDR 10BIT BT.2020 - WESTWORLD SEASON 1 (2016) - EP.8.mkv - 18.3 GB
4K HDR 10BIT BT.2020 - WESTWORLD SEASON 1 (2016) - EP.9.mkv - 18.5 GB

Download: mekafile
1 http://www.mekafile.com/dl.php?f=Wd3779bNoQVS
2 http://www.mekafile.com/dl.php?f=q63685bNoTPC
3 http://www.mekafile.com/dl.php?f=nOf7e5bNoXEn
4 http://www.mekafile.com/dl.php?f=9x601dbNp056
5 http://www.mekafile.com/dl.php?f=ccc531bNp8G0
6 http://www.mekafile.com/dl.php?f=YR4b0bbNoziD
7 http://www.mekafile.com/dl.php?f=Dqfd42bNoAj4
8 http://www.mekafile.com/dl.php?f=TLf988bNoC52
9 http://www.mekafile.com/dl.php?f=nLc1aabNoEEG
10 http://www.mekafile.com/dl.php?f=wE41dabNoOnO