--------------------------------------------------------------------------------------------------------




Shaun Of The Dead - รุ่งอรุณแห่งความวาย (ป่วง)

ประเภท/Type : Comedy/Drama/Romance/Horror

สร้างโดย/Studio : MCA / Universal

รายละเอียดเรื่องย่อ/Synopsis
ชอว์นมีชีวิตที่ไม่เอาไหน เขาใช้เวลาไปกับการดื่มเหล้า "เดอะวินเชสเตอร์" ผับประจำเมืองกับเอ็ดเพื่อนสนิทของเขา เขามีปัญหากับแม่และยังละเลย ลิช แฟนสาวของเขา เมื่อลิชทิ้งเขาไป ชอว์นจึงตัดสินใจปรับปรุงตัวเขาต้องเอาชนะใจแฟนสาวขอ งเขาอีกครั้งให้ได้ พร้อมทั้งสานสัมพันธ์กับแม่ของเขาและยืดอกรับหน้าที่ ของผู้ใหญ่ที่ดี โชคร้ายที่ซากศพฟื้นคืนชีพและออกล่าคนเป็นอาหารและนั ่นเป็นอุปสรรคอีกอย่างสำหรับชอว์นที่ได้เปลี่ยนแปลงต ัวเองใหม่ เมื่อจำนวนผีดิบมีมากขึ้นอย่างเต็มที่ เขาและเอ็ดจึงป้องกันตัวเองด้วยไม้ตีคริกเก็ตกับเสีย มเพื่อตามหาแม่พ่อเลี้ยงที่ไม่ค่อยถูกกัน แฟนสาวและเพื่อนของแฟนสาวที่เขาไม่ลงรอยด้วยอย่าง เดวิดกับไดแอนน์ เพื่อนำพวกเขาไปที่ๆ ปลอดภัยที่สุดที่พวกเขารู้จัก ซึ่งคือ "เดอะ วินเชสเตอร์"

นักแสดง/Actors :
- Simon Pegg
- Kate Ashfield
- Lucy Davis
- Nick Frost
- Dylan Moran

ผู้กำกับ/Directors :
- Edgar Wright


General
Unique ID : 206090353829611803363674746943428135455 (0x9B0B8EF145008121B56EC3F599FC8A1F)
Complete name : L:\nfs\download\[m-HD] The Three Flavours Cornetto Trilogy 2004-2013 BluRay 720p AC3 x264-CtHts\Shaun of the Dead 2004 BluRay 720p AC3 x264-CtHts.mkv
Format : Matroska
Format version : Version 4 / Version 2
File size : 2.24 GiB
Duration : 1h 39mn
Overall bit rate : 3 224 Kbps
Movie name : Shaun of the Dead 2004 BluRay 720p AC3 x264-CtHts
Encoded date : UTC 2014-01-31 07:22:02
Writing application : mkvmerge v6.7.0 ( Back to the Ground ) 32bit built on Jan 8 2014 15:03:17
Writing library : libebml v1.3.0 + libmatroska v1.4.1

Video
ID : 1
Format : AVC
Format/Info : Advanced Video Codec
Format profile : [email protected]
Format settings, CABAC : Yes
Format settings, ReFrames : 4 frames
Codec ID : V_MPEG4/ISO/AVC
Duration : 1h 39mn
Bit rate : 2 487 Kbps
Width : 1 280 pixels
Height : 560 pixels
Display aspect ratio : 2.25:1
Frame rate mode : Constant
Frame rate : 23.976 fps
Color space : YUV
Chroma subsampling : 4:2:0
Bit depth : 8 bits
Scan type : Progressive
Bits/(Pixel*Frame) : 0.145
Stream size : 1.73 GiB (77%)
Title : Shaun of the Dead 2004 BluRay 720p AC3 x264-CtHts
Writing library : x264 core 104 r1677 19df41a
Encoding settings : cabac=1 / ref=4 / deblock=1:0:0 / analyse=0x3:0x113 / me=hex / subme=4 / psy=1 / psy_rd=0.00:0.00 / mixed_ref=0 / me_range=16 / chroma_me=1 / trellis=1 / 8x8dct=1 / cqm=0 / deadzone=21,11 / fast_pskip=1 / chroma_qp_offset=0 / threads=3 / sliced_threads=0 / nr=0 / decimate=1 / interlaced=0 / constrained_intra=0 / bframes=3 / b_pyramid=0 / b_adapt=1 / b_bias=0 / direct=1 / weightb=1 / open_gop=0 / weightp=1 / keyint=250 / keyint_min=23 / scenecut=40 / intra_refresh=0 / rc_lookahead=40 / rc=2pass / mbtree=1 / bitrate=2487 / ratetol=1.0 / qcomp=0.60 / qpmin=10 / qpmax=51 / qpstep=4 / cplxblur=20.0 / qblur=0.5 / ip_ratio=1.40 / aq=1:1.00
Language : English
Default : Yes
Forced : Yes

Audio #1
ID : 2
Format : AC-3
Format/Info : Audio Coding 3
Mode extension : CM (complete main)
Format settings, Endianness : Big
Codec ID : A_AC3
Duration : 1h 39mn
Bit rate mode : Constant
Bit rate : 224 Kbps
Channel(s) : 2 channels
Channel positions : Front: L R
Sampling rate : 48.0 KHz
Bit depth : 16 bits
Compression mode : Lossy
Delay relative to video : 24ms
Stream size : 159 MiB (7%)
Title : Thai AC-3 2.0 at 224 Kbps DVD Master
Language : Thai
Default : Yes
Forced : Yes

Audio #2
ID : 3
Format : AC-3
Format/Info : Audio Coding 3
Mode extension : CM (complete main)
Format settings, Endianness : Big
Codec ID : A_AC3
Duration : 1h 39mn
Bit rate mode : Constant
Bit rate : 448 Kbps
Channel(s) : 6 channels
Channel positions : Front: L C R, Side: L R, LFE
Sampling rate : 48.0 KHz
Bit depth : 16 bits
Compression mode : Lossy
Stream size : 319 MiB (14%)
Title : English AC-3 5.1 at 448 Kbps
Language : English
Default : No
Forced : No

Text #1
ID : 4
Format : VobSub
Muxing mode : zlib
Codec ID : S_VOBSUB
Codec ID/Info : The same subtitle format used on DVDs
Title : Thai 480p
Language : Thai
Default : No
Forced : No

Text #2
ID : 5
Format : VobSub
Muxing mode : zlib
Codec ID : S_VOBSUB
Codec ID/Info : The same subtitle format used on DVDs
Title : Thai 720p
Language : Thai
Default : No
Forced : No

Text #3
ID : 6
Format : VobSub
Muxing mode : zlib
Codec ID : S_VOBSUB
Codec ID/Info : The same subtitle format used on DVDs
Title : Thai Angsana 1080p
Language : Thai
Default : Yes
Forced : Yes

Text #4
ID : 7
Format : VobSub
Muxing mode : zlib
Codec ID : S_VOBSUB
Codec ID/Info : The same subtitle format used on DVDs
Title : Thai Angsana 1080p Under
Language : Thai
Default : No
Forced : No

Text #5
ID : 8
Format : PGS
Muxing mode : zlib
Codec ID : S_HDMV/PGS
Codec ID/Info : The same subtitle format used on BDs/HD-DVDs
Title : Thai Angsana PGS
Language : Thai
Default : No
Forced : No

Text #6
ID : 9
Format : VobSub
Muxing mode : zlib
Codec ID : S_VOBSUB
Codec ID/Info : The same subtitle format used on DVDs
Title : Thai Sarabun 1080p
Language : Thai
Default : No
Forced : No

Text #7
ID : 10
Format : VobSub
Muxing mode : zlib
Codec ID : S_VOBSUB
Codec ID/Info : The same subtitle format used on DVDs
Title : Thai Sarabun 1080p Under
Language : Thai
Default : No
Forced : No

Text #8
ID : 11
Format : PGS
Muxing mode : zlib
Codec ID : S_HDMV/PGS
Codec ID/Info : The same subtitle format used on BDs/HD-DVDs
Title : Thai Sarabun PGS
Language : Thai
Default : No
Forced : No

Text #9
ID : 12
Format : UTF-8
Codec ID : S_TEXT/UTF8
Codec ID/Info : UTF-8 Plain Text
Title : English SRT
Language : English
Default : No
Forced : No


SS: http://postto.me/12/c6w



--------------------------------------------------------------------------------------------------------




Hot Fuzz - ฮอท ฟัซ โปลิศโคตรแมน

ประเภท/Type : Action/Adventure/Comedy/Suspense Mystery

สร้างโดย/Studio : MCA / Universal

รายละเอียดเรื่องย่อ/Synopsis
นิโคลาส คือตำรวจที่เก่งและเจ๋งที่สุดในลอนดอน ผลงานปราบปรามอาชญากรรมของเขาทำให้เพื่อนร่วมงานดูจ๋ อยกันเป็นแถวๆ ผลก็คือเขาถูกย้ายไปแซนด์ฟอร์ด เมืองบ้านนอกแสนสงบที่ดูเหมือนจะไม่เหมาะกับคนฝีมือเ ช่นเขา ที่นี่นิโคลาสต้องทำงานคู่กับแดนนี่ นายตำรวจสุดทึ่มผู้บ้าหนังแอ็คชั่นจนเข้าเส้นเลือด ซึ่งแดนนี่ฝังใจว่านิโคลาสจะต้องเป็นตำรวจแบดบอยพันธ ุ์ระห่ำจากเมืองใหญ่ที่จะทำให้เขาได้ตะลุยกับเหล่าร้ าย ฝ่าระเบิดและห่ากระสุน การทำตัวเหมือนเด็กของแดนนี่สร้างความรำคาญให้กับนิโ คลาสเป็นอย่างยิ่ง จนกระทั่งเกิดคดีสำคัญคดีหนึ่งที่ทำให้ทั้งคู่ต้องลุ ยนรกไปด้วยกัน ในที่สุดก็พบว่าพวกเขานี่แหละคือทีมที่เข้าขากันที่ส ุด

นักแสดง/Actors :
- Simon Pegg
- Nick Frost
- Jim Broadbent

ผู้กำกับ/Directors :
- Edgar Wright


General
Unique ID : 217944307775937344165152051089579095353 (0xA3F68BFEB7E171EB956698D67986B539)
Complete name : L:\nfs\download\[m-HD] The Three Flavours Cornetto Trilogy 2004-2013 BluRay 720p AC3 x264-CtHts\Hot Fuzz 2007 BluRay 720p AC3 x264-CtHts.mkv
Format : Matroska
Format version : Version 4 / Version 2
File size : 2.91 GiB
Duration : 2h 0mn
Overall bit rate : 3 442 Kbps
Movie name : Hot Fuzz 2007 BluRay 720p AC3 x264-CtHts
Encoded date : UTC 2014-01-31 11:03:48
Writing application : mkvmerge v6.7.0 ( Back to the Ground ) 32bit built on Jan 8 2014 15:03:17
Writing library : libebml v1.3.0 + libmatroska v1.4.1

Video
ID : 1
Format : AVC
Format/Info : Advanced Video Codec
Format profile : [email protected]
Format settings, CABAC : Yes
Format settings, ReFrames : 2 frames
Codec ID : V_MPEG4/ISO/AVC
Duration : 2h 0mn
Bit rate : 2 533 Kbps
Width : 1 280 pixels
Height : 544 pixels
Display aspect ratio : 2.35:1
Frame rate mode : Constant
Frame rate : 23.976 fps
Color space : YUV
Chroma subsampling : 4:2:0
Bit depth : 8 bits
Scan type : Progressive
Bits/(Pixel*Frame) : 0.152
Stream size : 2.15 GiB (74%)
Title : Hot Fuzz 2007 BluRay 720p AC3 x264-CtHts
Writing library : x264 core 92 r1510 33d382a
Encoding settings : cabac=1 / ref=1 / deblock=1:0:0 / analyse=0x3:0x133 / me=dia / subme=1 / psy=1 / psy_rd=0.00:0.00 / mixed_ref=0 / me_range=16 / chroma_me=1 / trellis=2 / 8x8dct=1 / cqm=0 / deadzone=21,11 / fast_pskip=1 / chroma_qp_offset=0 / threads=3 / sliced_threads=0 / nr=0 / decimate=1 / interlaced=0 / constrained_intra=0 / bframes=3 / b_pyramid=0 / b_adapt=1 / b_bias=0 / direct=3 / wpredb=1 / wpredp=2 / keyint=250 / keyint_min=25 / scenecut=40 / intra_refresh=0 / rc=2pass / mbtree=0 / bitrate=2533 / ratetol=1.0 / qcomp=0.60 / qpmin=10 / qpmax=51 / qpstep=4 / cplxblur=20.0 / qblur=0.5 / ip_ratio=1.40 / pb_ratio=1.30 / aq=0
Language : English
Default : Yes
Forced : Yes

Audio #1
ID : 2
Format : AC-3
Format/Info : Audio Coding 3
Mode extension : CM (complete main)
Format settings, Endianness : Big
Codec ID : A_AC3
Duration : 2h 0mn
Bit rate mode : Constant
Bit rate : 384 Kbps
Channel(s) : 6 channels
Channel positions : Front: L C R, Side: L R, LFE
Sampling rate : 48.0 KHz
Bit depth : 16 bits
Compression mode : Lossy
Stream size : 332 MiB (11%)
Title : Thai AC-3 5.1 at 384 Kbps DVD Master
Language : Thai
Default : Yes
Forced : Yes

Audio #2
ID : 3
Format : AC-3
Format/Info : Audio Coding 3
Mode extension : CM (complete main)
Format settings, Endianness : Big
Codec ID : A_AC3
Duration : 2h 0mn
Bit rate mode : Constant
Bit rate : 448 Kbps
Channel(s) : 6 channels
Channel positions : Front: L C R, Side: L R, LFE
Sampling rate : 48.0 KHz
Bit depth : 16 bits
Compression mode : Lossy
Stream size : 387 MiB (13%)
Title : English AC-3 5.1 at 448 Kbps
Language : English
Default : No
Forced : No

Text #1
ID : 4
Format : VobSub
Muxing mode : zlib
Codec ID : S_VOBSUB
Codec ID/Info : The same subtitle format used on DVDs
Title : Thai 480p
Language : Thai
Default : No
Forced : No

Text #2
ID : 5
Format : VobSub
Muxing mode : zlib
Codec ID : S_VOBSUB
Codec ID/Info : The same subtitle format used on DVDs
Title : Thai 720p
Language : Thai
Default : No
Forced : No

Text #3
ID : 6
Format : VobSub
Muxing mode : zlib
Codec ID : S_VOBSUB
Codec ID/Info : The same subtitle format used on DVDs
Title : 1000Thai Angsana 1080p
Language : Thai
Default : Yes
Forced : Yes

Text #4
ID : 7
Format : VobSub
Muxing mode : zlib
Codec ID : S_VOBSUB
Codec ID/Info : The same subtitle format used on DVDs
Title : Thai Angsana 1080p Under
Language : Thai
Default : No
Forced : No

Text #5
ID : 8
Format : PGS
Muxing mode : zlib
Codec ID : S_HDMV/PGS
Codec ID/Info : The same subtitle format used on BDs/HD-DVDs
Title : Thai Angsana PGS
Language : Thai
Default : No
Forced : No

Text #6
ID : 9
Format : VobSub
Muxing mode : zlib
Codec ID : S_VOBSUB
Codec ID/Info : The same subtitle format used on DVDs
Title : Thai Sarabun 1080p
Language : Thai
Default : No
Forced : No

Text #7
ID : 10
Format : VobSub
Muxing mode : zlib
Codec ID : S_VOBSUB
Codec ID/Info : The same subtitle format used on DVDs
Title : Thai Sarabun 1080p Under
Language : Thai
Default : No
Forced : No

Text #8
ID : 11
Format : PGS
Muxing mode : zlib
Codec ID : S_HDMV/PGS
Codec ID/Info : The same subtitle format used on BDs/HD-DVDs
Title : Thai Sarabun PGS
Language : Thai
Default : No
Forced : No

Text #9
ID : 12
Format : UTF-8
Codec ID : S_TEXT/UTF8
Codec ID/Info : UTF-8 Plain Text
Title : English SRT
Language : English
Default : No
Forced : No


SS: http://postto.me/12/c6p



--------------------------------------------------------------------------------------------------------




The World s End - ก๊วนรั่วกู้โลก

ประเภท/Type : Action/Comedy/Sci-Fi

สร้างโดย/Studio : MCA / Universal

รายละเอียดเรื่องย่อ/Synopsis :
...จากผู้กำกับ Shaun of the Dead (2004) และ Hot Fuzz (2007)
เรื่องราวของ The World’s End เริ่มต้นขึ้นในวันที่ 22 มิถุนายน ปี 1990 ในเมืองนิวตัน ฮาเวน
ที่อยู่ย่านชานเมืองของอังกฤษ เด็กหนุ่มห้าคน ที่กำลังจะก้าวเข้าสู่วัยรุ่น ได้เฉลิมฉลองวันเรียนจบด้วยการพยายามจะสรรค์สร้างตำน าน
การบุกตะลุยผับด้วยกัน แม้ว่าพวกเขาจะกระตือรือร้นและกระดกเบียร์ไปมากแค่ไห น พวกเขากลับไม่ประสบความสำเร็จดังความตั้งใจ
เพราะพวกเขาไม่สามารถไปถึง เดอะ เวิลด์ส เอนด์ ซึ่งเป็นผับสุดท้ายในลิสต์ของพวกเขาได้ ขณะที่พวกเขาพยายามที่จะประสานเรื่องในอดีต
และปัจจุบันเข้าด้วยกัน การได้พบกับสถานที่เก่าๆ และคนที่พวกเขาเคยรู้จัก ที่ทั้งอันตรายและเพี้ยนมากขึ้นเรื่อยๆ ก็ทำให้พวกเขาตระหนักได้ว่า
การที่พวกเขาฝ่าฟันอุปสรรคต่างๆ เหล่านี้ก็เพื่ออนาคต แต่ไม่ใช่อนาคตของพวกเขาเท่านั้น มันยังเป็นอนาคตของมนุษยชาติด้วย
และการไปให้ถึงเดอะ เวิลด์ส เอนด์อาจเป็นสิ่งที่น่ากังวลน้อยที่สุดก็เป็นได้ ในตอนนี้!!!

นักแสดง/Actors :
- Simon Pegg
- Nick Frost
- Martin Freeman

ผู้กำกับ/Directors :
- Edgar Wright


General
Unique ID : 207128536844771236323360381583713826472 (0x9BD3815128D63BBFA0524A184A86F6A8)
Complete name : L:\nfs\download\[m-HD] The Three Flavours Cornetto Trilogy 2004-2013 BluRay 720p AC3 x264-CtHts\The Worlds End 2013 BluRay 720p DTS x264-CtHts.mkv
Format : Matroska
Format version : Version 4 / Version 2
File size : 3.26 GiB
Duration : 1h 49mn
Overall bit rate : 4 271 Kbps
Movie name : The Worlds End 2013 BluRay 720p DTS x264-CtHts
Encoded date : UTC 2014-01-18 09:26:54
Writing application : mkvmerge v6.7.0 ( Back to the Ground ) 32bit built on Jan 8 2014 15:03:17
Writing library : libebml v1.3.0 + libmatroska v1.4.1

Video
ID : 1
Format : AVC
Format/Info : Advanced Video Codec
Format profile : [email protected]
Format settings, CABAC : Yes
Format settings, ReFrames : 6 frames
Codec ID : V_MPEG4/ISO/AVC
Duration : 1h 49mn
Bit rate : 2 694 Kbps
Width : 1 280 pixels
Height : 544 pixels
Display aspect ratio : 2.35:1
Frame rate mode : Constant
Frame rate : 23.976 fps
Color space : YUV
Chroma subsampling : 4:2:0
Bit depth : 8 bits
Scan type : Progressive
Bits/(Pixel*Frame) : 0.161
Stream size : 2.03 GiB (62%)
Title : The Worlds End 2013 BluRay 720p DTS x264-CtHts
Writing library : x264 core 120 r2164 da19765
Encoding settings : cabac=1 / ref=6 / deblock=1:1:1 / analyse=0x3:0x113 / me=umh / subme=7 / psy=1 / psy_rd=1.00:0.00 / mixed_ref=1 / me_range=48 / chroma_me=1 / trellis=2 / 8x8dct=1 / cqm=0 / deadzone=21,11 / fast_pskip=1 / chroma_qp_offset=-2 / threads=6 / sliced_threads=0 / nr=200 / decimate=1 / interlaced=0 / bluray_compat=0 / constrained_intra=0 / bframes=6 / b_pyramid=2 / b_adapt=1 / b_bias=0 / direct=1 / weightb=1 / open_gop=0 / weightp=2 / keyint=240 / keyint_min=23 / scenecut=40 / intra_refresh=0 / rc_lookahead=40 / rc=2pass / mbtree=1 / bitrate=2694 / ratetol=1.0 / qcomp=0.60 / qpmin=0 / qpmax=69 / qpstep=4 / cplxblur=20.0 / qblur=0.5 / vbv_maxrate=31250 / vbv_bufsize=31250 / nal_hrd=none / ip_ratio=1.40 / aq=1:1.00
Language : English
Default : Yes
Forced : Yes

Audio #1
ID : 2
Format : DTS
Format/Info : Digital Theater Systems
Mode : 16
Format settings, Endianness : Big
Codec ID : A_DTS
Duration : 1h 49mn
Bit rate mode : Constant
Bit rate : 768 Kbps
Channel(s) : 6 channels
Channel positions : Front: L C R, Side: L R, LFE
Sampling rate : 48.0 KHz
Bit depth : 24 bits
Compression mode : Lossy
Stream size : 599 MiB (18%)
Title : Thai DTS 5.1 at 768 Kbps BluRay Master
Language : Thai
Default : Yes
Forced : Yes

Audio #2
ID : 3
Format : DTS
Format/Info : Digital Theater Systems
Mode : 16
Format settings, Endianness : Big
Codec ID : A_DTS
Duration : 1h 49mn
Bit rate mode : Constant
Bit rate : 755 Kbps
Channel(s) : 6 channels
Channel positions : Front: L C R, Side: L R, LFE
Sampling rate : 48.0 KHz
Bit depth : 24 bits
Compression mode : Lossy
Stream size : 589 MiB (18%)
Title : English DTS 5.1 at 755 Kbps
Language : English
Default : No
Forced : No

Text #1
ID : 4
Format : VobSub
Muxing mode : zlib
Codec ID : S_VOBSUB
Codec ID/Info : The same subtitle format used on DVDs
Title : Thai 480p
Language : Thai
Default : No
Forced : No

Text #2
ID : 5
Format : VobSub
Muxing mode : zlib
Codec ID : S_VOBSUB
Codec ID/Info : The same subtitle format used on DVDs
Title : Thai 720p
Language : Thai
Default : No
Forced : No

Text #3
ID : 6
Format : VobSub
Muxing mode : zlib
Codec ID : S_VOBSUB
Codec ID/Info : The same subtitle format used on DVDs
Title : Thai 1080p BluRay Master
Language : Thai
Default : Yes
Forced : Yes

Text #4
ID : 7
Format : VobSub
Muxing mode : zlib
Codec ID : S_VOBSUB
Codec ID/Info : The same subtitle format used on DVDs
Title : Thai 1080p BluRay Master [Out]
Language : Thai
Default : No
Forced : No

Text #5
ID : 8
Format : VobSub
Muxing mode : zlib
Codec ID : S_VOBSUB
Codec ID/Info : The same subtitle format used on DVDs
Title : Thai 1080p BluRay Master [BIG]
Language : Thai
Default : No
Forced : No

Text #6
ID : 9
Format : PGS
Muxing mode : zlib
Codec ID : S_HDMV/PGS
Codec ID/Info : The same subtitle format used on BDs/HD-DVDs
Title : Thai PGS BluRay Master
Language : Thai
Default : No
Forced : No

Text #7
ID : 10
Format : PGS
Muxing mode : zlib
Codec ID : S_HDMV/PGS
Codec ID/Info : The same subtitle format used on BDs/HD-DVDs
Title : Thai PGS Out BluRay Master
Language : Thai
Default : No
Forced : No

Text #8
ID : 11
Format : UTF-8
Codec ID : S_TEXT/UTF8
Codec ID/Info : UTF-8 Plain Text
Title : English SRT
Language : English
Default : No
Forced : No

Text #9
ID : 12
Format : UTF-8
Codec ID : S_TEXT/UTF8
Codec ID/Info : UTF-8 Plain Text
Title : English SDH
Language : English
Default : No
Forced : No

Text #10
ID : 13
Format : UTF-8
Codec ID : S_TEXT/UTF8
Codec ID/Info : UTF-8 Plain Text
Title : English Production Notes
Language : English
Default : No
Forced : No

Menu
00:00:00.000 : en:00:00:00.000
00:05:38.296 : en:00:05:38.296
00:10:33.007 : en:00:10:33.007
00:15:34.767 : en:00:15:34.767
00:19:56.695 : en:00:19:56.695
00:25:23.981 : en:00:25:23.981
00:30:07.180 : en:00:30:07.180
00:36:09.751 : en:00:36:09.751
00:42:40.266 : en:00:42:40.266
00:46:17.233 : en:00:46:17.233
00:50:20.017 : en:00:50:20.017
00:57:20.729 : en:00:57:20.729
01:02:29.204 : en:01:02:29.204
01:06:30.737 : en:01:06:30.737
01:12:17.124 : en:01:12:17.124
01:18:37.004 : en:01:18:37.004
01:23:51.193 : en:01:23:51.193
01:26:45.784 : en:01:26:45.784
01:35:16.753 : en:01:35:16.753
01:42:20.217 : en:01:42:20.217


SS: http://postto.me/12/9q3




Hot Fuzz 2007 BluRay 720p AC3 x264-CtHts.mkv - 2.9 GB
http://www.mekafile.com/dl.php?f=2c8732bNrjlZ
Shaun of the Dead 2004 BluRay 720p AC3 x264-CtHts.mkv - 2.2 GB
http://www.mekafile.com/dl.php?f=UWbba9bNrjeZ
The Worlds End 2013 BluRay 720p DTS x264-CtHts.mkv - 3.3 GB
http://www.mekafile.com/dl.php?f=0F0c22bNrj8M