+ Reply to Thread
Results 1 to 1 of 1
  1. #1
    Administrators Duckload.us's Avatar
    Join Date
    Dec 2010
    Posts
    97,170
    Thanks
    9
    Thanked 98,480 Times in 47,388 Posts

    Question [Netflix] • Angela s Christmas (2018) คริสต์มาสของแอนเจลา • [WEB-DL.H.264.720] • [พากย์ไทย 5.1/อังกฤษ 5.1 + บรรยายไทย/อังกฤษ]



    การเดินทางไปโบสถ์กับครอบครัวในคืนก่อนวันคริสต์มาสท ำให้สาวน้อยแอนเจลาปิ๊งสุดยอดไอเดีย พบกับเรื่องราวอบอุ่นแสนประทับใจ สร้างจากผลงานปลายปากกาของแฟรงก์ แมคคอร์ต

    General
    Unique ID : 231715282739968641918592740269563922559 (0xAE52BD7B21F9431AE0F20D922AA5487F)
    Complete name : C:UsersAdministratorDesktoptorrentคริสต์มาสของแอนเ จลา.mkv
    Format : Matroska
    Format version : Version 4
    File size : 1.98 GiB
    Duration : 30 min 25 s
    Overall bit rate : 9 304 kb/s
    Encoded date : UTC 2018-12-05 10:12:19
    Writing application : mkvmerge v29.0.0 ( Like It Or Not ) 64-bit
    Writing library : libebml v1.3.6 + libmatroska v1.4.9

    Video
    ID : 1
    Format : AVC
    Format/Info : Advanced Video Codec
    Format profile : [email protected]
    Format settings : CABAC / 3 Ref Frames
    Format settings, CABAC : Yes
    Format settings, RefFrames : 3 frames
    Codec ID : V_MPEG4/ISO/AVC
    Duration : 30 min 24 s
    Bit rate : 8 526 kb/s
    Width : 1 280 pixels
    Height : 720 pixels
    Display aspect ratio : 16:9
    Frame rate mode : Constant
    Frame rate : 25.000 FPS
    Color space : YUV
    Chroma subsampling : 4:2:0
    Bit depth : 8 bits
    Scan type : Progressive
    Bits/(Pixel*Frame) : 0.370
    Stream size : 1.81 GiB (92%)
    Default : Yes
    Forced : No

    Audio #1
    ID : 2
    Format : AC-3
    Format/Info : Audio Coding 3
    Commercial name : Dolby Digital
    Codec ID : A_AC3
    Duration : 30 min 24 s
    Bit rate mode : Constant
    Bit rate : 384 kb/s
    Channel(s) : 6 channels
    Channel layout : L R C LFE Ls Rs
    Sampling rate : 48.0 kHz
    Frame rate : 31.250 FPS (1536 SPF)
    Bit depth : 16 bits
    Compression mode : Lossy
    Delay relative to video : -80 ms
    Stream size : 83.5 MiB (4%)
    Title : THAI DD 5.1
    Language : Thai
    Service kind : Complete Main
    Default : Yes
    Forced : No

    Audio #2
    ID : 3
    Format : AC-3
    Format/Info : Audio Coding 3
    Commercial name : Dolby Digital
    Codec ID : A_AC3
    Duration : 30 min 24 s
    Bit rate mode : Constant
    Bit rate : 384 kb/s
    Channel(s) : 6 channels
    Channel layout : L R C LFE Ls Rs
    Sampling rate : 48.0 kHz
    Frame rate : 31.250 FPS (1536 SPF)
    Bit depth : 16 bits
    Compression mode : Lossy
    Delay relative to video : -80 ms
    Stream size : 83.5 MiB (4%)
    Title : ENG DD 5.1
    Language : English
    Service kind : Complete Main
    Default : No
    Forced : No

    Text #1
    ID : 4
    Format : PGS
    Muxing mode : zlib
    Codec ID : S_HDMV/PGS
    Codec ID/Info : Picture based subtitle format used on BDs/HD-DVDs
    Duration : 28 min 43 s
    Bit rate : 17.7 kb/s
    Count of elements : 598
    Stream size : 3.65 MiB (0%)
    Title : THAI PGS
    Language : Thai
    Default : Yes
    Forced : No

    Text #2
    ID : 5
    Format : UTF-8
    Codec ID : S_TEXT/UTF8
    Codec ID/Info : UTF-8 Plain Text
    Duration : 29 min 1 s
    Bit rate : 66 b/s
    Count of elements : 425
    Stream size : 14.2 KiB (0%)
    Title : ENG
    Language : English
    Default : No
    Forced : No






    Download: cornfile
    http://cornfile.com/w628mkwowa7e
    Download: mekafile
    http://www.mekafile.com/dl.php?f=zq1340bNtxls

  2. The Following 7 Users Say Thank You to Duckload.us For This Useful Post:

    apichartdear (12-06-2018), bigbang06 (12-06-2018), gaszolineskywalker (12-07-2018), gozilla02 (12-06-2018), Jodz14 (Yesterday), Sherlock (12-06-2018), smakha (12-07-2018)

+ Reply to Thread

Thread Information

Users Browsing this Thread

There are currently 1 users browsing this thread. (0 members and 1 guests)

     

Posting Permissions

  • You may not post new threads
  • You may not post replies
  • You may not post attachments
  • You may not edit your posts