+ Reply to Thread
Results 1 to 1 of 1
  1. #1
    Administrators Duckload.us's Avatar
    Join Date
    Dec 2010
    Posts
    97,170
    Thanks
    9
    Thanked 98,480 Times in 47,388 Posts

    Question [Netflix] • A Christmas Prince: The Royal Wedding (2018) เจ้าชายคริสต์มาส - มหัศจรรย์วันวิวาห์ [WEB-DL H.264 1080P] [พากย์อังกฤษ 5.1 / บรรยายไทย]




    หนึ่งปีหลังจากช่วยให้ริชาร์ดได้ขึ้นครองบัลลังก์ แอมเบอร์กลับไปที่อัลโดเวียเพื่อวางแผนงานแต่งงานของ ทั้งคู่ แต่ตัวตนแบบบ้านๆ ของเธออาจไม่ตรงตามครรลองของชีวิตราชวงศ์

    Format : Matroska
    Format version : Version 4
    File size : 3.67 GiB
    Duration : 1 h 32 min
    Overall bit rate : 5 644 kb/s
    Encoded date : UTC 2018-12-05 08:46:40
    Writing application : mkvmerge v29.0.0 ( Like It Or Not ) 64-bit
    Writing library : libebml v1.3.6 + libmatroska v1.4.9

    Video
    ID : 1
    Format : AVC
    Format/Info : Advanced Video Codec
    Format profile : [email protected]
    Format settings : CABAC / 3 Ref Frames
    Format settings, CABAC : Yes
    Format settings, RefFrames : 3 frames
    Codec ID : V_MPEG4/ISO/AVC
    Duration : 1 h 32 min
    Bit rate : 5 245 kb/s
    Width : 1 920 pixels
    Height : 1 080 pixels
    Display aspect ratio : 16:9
    Frame rate mode : Constant
    Frame rate : 23.976 (24000/1001) FPS
    Color space : YUV
    Chroma subsampling : 4:2:0
    Bit depth : 8 bits
    Scan type : Progressive
    Bits/(Pixel*Frame) : 0.105
    Stream size : 3.41 GiB (93%)
    Default : Yes
    Forced : No

    Audio
    ID : 2
    Format : AC-3
    Format/Info : Audio Coding 3
    Commercial name : Dolby Digital
    Codec ID : A_AC3
    Duration : 1 h 32 min
    Bit rate mode : Constant
    Bit rate : 384 kb/s
    Channel(s) : 6 channels
    Channel layout : L R C LFE Ls Rs
    Sampling rate : 48.0 kHz
    Frame rate : 31.250 FPS (1536 SPF)
    Bit depth : 16 bits
    Compression mode : Lossy
    Delay relative to video : -41 ms
    Stream size : 255 MiB (7%)
    Title : ENG DD5.1
    Language : English
    Service kind : Complete Main
    Default : Yes
    Forced : No

    Text
    ID : 3
    Format : PGS
    Muxing mode : zlib
    Codec ID : S_HDMV/PGS
    Codec ID/Info : Picture based subtitle format used on BDs/HD-DVDs
    Duration : 1 h 32 min
    Bit rate : 32.6 kb/s
    Count of elements : 3106
    Stream size : 21.5 MiB (1%)
    Title : THAI PGS
    Language : Thai
    Default : Yes
    Forced : No






    Download: cornfile
    http://cornfile.com/p2u13svzrcjt
    Download: mekafile
    http://www.mekafile.com/dl.php?f=VVfd6abNtvvj

  2. The Following User Says Thank You to Duckload.us For This Useful Post:

    smakha (12-07-2018)

+ Reply to Thread

Thread Information

Users Browsing this Thread

There are currently 1 users browsing this thread. (0 members and 1 guests)

     

Posting Permissions

  • You may not post new threads
  • You may not post replies
  • You may not post attachments
  • You may not edit your posts