+ Reply to Thread
Results 1 to 1 of 1
  1. #1
    Administrators Duckload.us's Avatar
    Join Date
    Dec 2010
    Posts
    97,170
    Thanks
    9
    Thanked 98,480 Times in 47,388 Posts

    Question (ฝรั่ง)-Black Water (2018)[1080p.mkv] [SoundTrack:Eng AC3 2.0:MASTER.Modifide][✏SUB:Eng/Thai:Google Translate✏]




    สายลับที่ตื่นขึ้นมาแล้วพบว่าตัวเองถูกคุมขังอยู่บนเ รือดำน้ำ ด้วยความช่วยเหลือของเพื่อนนักโทษและนักกีฬาสมัครเล่ นเขาต้องแข่งกับเวลาเพื่อหนีออกจากเรือและสืบหาว่าใค รเป็นคนที่จับเขามา

    Black Water (2018)WEBRip.x264.mkv
    Format : Matroska
    Format version : Version 4
    File size : 3.53 GiB
    Duration : 1 h 44 min
    Overall bit rate : 4 822 kb/s
    Encoded date : UTC 2018-12-04 14:08:36

    Video
    ID : 1
    Format : AVC
    Format/Info : Advanced Video Codec
    Format profile : [email protected]
    Format settings : 1 Ref Frames
    Format settings, CABAC : No
    Format settings, ReFrames : 1 frame
    Format settings, GOP : M=1, N=12
    Codec ID : V_MPEG4/ISO/AVC
    Duration : 1 h 44 min
    Bit rate : 4 500 kb/s
    Width : 1 920 pixels
    Height : 1 080 pixels
    Display aspect ratio : 2.40:1
    Frame rate mode : Constant
    Frame rate : 23.976 (24000/1001) FPS
    Color space : YUV
    Chroma subsampling : 4:2:0
    Bit depth : 8 bits
    Scan type : Progressive
    Bits/(Pixel*Frame) : 0.091
    Stream size : 3.29 GiB (93%)
    Default : Yes
    Forced : No

    Audio
    ID : 2
    Format : AC-3
    Format/Info : Audio Coding 3
    Commercial name : Dolby Digital
    Codec ID : A_AC3
    Duration : 1 h 44 min
    Bit rate mode : Constant
    Bit rate : 320 kb/s
    Channel(s) : 2 channels
    Channel layout : L R
    Sampling rate : 44.1 kHz
    Frame rate : 28.711 FPS (1536 SPF)
    Bit depth : 16 bits
    Compression mode : Lossy
    Stream size : 240 MiB (7%)
    Language : English
    Service kind : Complete Main
    Default : Yes
    Forced : Yes

    Text #1
    ID : 3
    Format : UTF-8
    Codec ID : S_TEXT/UTF8
    Codec ID/Info : UTF-8 Plain Text
    Duration : 1 h 41 min
    Bit rate : 49 b/s
    Count of elements : 1089
    Stream size : 36.7 KiB (0%)
    Language : English
    Default : Yes
    Forced : Yes

    Text #2
    ID : 4
    Format : UTF-8
    Codec ID : S_TEXT/UTF8
    Codec ID/Info : UTF-8 Plain Text
    Duration : 1 h 41 min
    Bit rate : 118 b/s
    Count of elements : 1088
    Stream size : 87.9 KiB (0%)
    Language : Thai
    Default : No
    Forced : No






    Download: cornfile
    http://cornfile.com/y1btk7l6qsta
    Download: mekafile
    http://www.mekafile.com/dl.php?f=kY9328bNtvox

  2. The Following User Says Thank You to Duckload.us For This Useful Post:

    noi54 (12-06-2018)

+ Reply to Thread

Thread Information

Users Browsing this Thread

There are currently 1 users browsing this thread. (0 members and 1 guests)

     

Posting Permissions

  • You may not post new threads
  • You may not post replies
  • You may not post attachments
  • You may not edit your posts