+ Reply to Thread
Results 1 to 1 of 1
  1. #1
    Administrators Duckload.us's Avatar
    Join Date
    Dec 2010
    Posts
    104,270
    Thanks
    9
    Thanked 107,487 Times in 50,716 Posts

    Question [ฝรั่ง]-Bad Times at the El Royale (2018) ห้วงวิกฤตที่ เอล โรแยล - [พากย์ไทย+อังกฤษ] [บรรยายไทย+อังกฤษ] UHD.2160p.Bluray.x265.HDR.Atmos.7.1



    เมื่อคนแปลกหน้าเจ็ดที่คนต่างมีความลับปิดซ่อน มาพบกัน ณ เอล รอยัล โรงแรมอันแสนทรุดโทรมและซบเซาที่มาพร้อมอดีตอันดำมืด ริมทะเลสาปทาโฮ เมื่อค่ำคืนแห่งโชคชะตานี้ผ่านไป ทุกคนจะได้รับการไถ่บาปครั้งสุดท้าย ก่อนที่ทุกอย่างจะดำดิ่งสู่นรก

    Duration : 2 h 21 min
    Overall bit rate mode : Variable
    Overall bit rate : 11.1 Mb/s
    Encoded date : UTC 2019-01-09 23:24:26
    Writing application : mkvmerge v30.1.0 ( Forever And More ) 64-bit
    Writing library : libebml v1.3.6 + libmatroska v1.4.9

    Video
    ID : 1
    Format : HEVC
    Format/Info : High Efficiency Video Coding
    Commercial name : HDR10
    Format profile : Main [email protected]@High
    Codec ID : V_MPEGH/ISO/HEVC
    Duration : 2 h 21 min
    Bit rate : 4 694 kb/s
    Width : 3 840 pixels
    Height : 1 608 pixels
    Display aspect ratio : 2.40:1
    Frame rate mode : Constant
    Frame rate : 23.976 (24000/1001) FPS
    Color space : YUV
    Chroma subsampling : 4:2:0
    Bit depth : 10 bits
    Bits/(Pixel*Frame) : 0.032
    Stream size : 4.64 GiB (42%)
    Writing library : x265 2.9+2-7e978ed93d60:[Windows][GCC 8.2.0][64 bit] 10bit
    Encoding settings : cpuid=1111039 / frame-threads=4 / numa-pools=14,14 / wpp / pmode / no-pme / no-psnr / no-ssim / log-level=2 / input-csp=1 / input-res=3840x1608 / interlace=0 / total-frames=203746 / level-idc=51 / high-tier=1 / uhd-bd=0 / ref=1 / no-allow-non-conformance / repeat-headers / annexb / no-aud / no-hrd / info / hash=0 / no-temporal-layers / open-gop / min-keyint=23 / keyint=240 / gop-lookahead=0 / bframes=3 / b-adapt=0 / b-pyramid / bframe-bias=0 / rc-lookahead=5 / lookahead-slices=8 / scenecut=0 / radl=0 / no-intra-refresh / ctu=32 / min-cu-size=16 / no-rect / no-amp / max-tu-size=32 / tu-inter-depth=1 / tu-intra-depth=1 / limit-tu=0 / rdoq-level=0 / dynamic-rd=0.00 / no-ssim-rd / no-signhide / no-tskip / nr-intra=0 / nr-inter=0 / no-constrained-intra / no-strong-intra-smoothing / max-merge=2 / limit-refs=0 / no-limit-modes / me=2 / subme=5 / merange=57 / temporal-mvp / no-weightp / no-weightb / no-analyze-src-pics / deblock=0:0 / no-sao / no-sao-non-deblock / rd=2 / early-skip / rskip / fast-intra / no-tskip-fast / no-cu-lossless / no-b-intra / no-splitrd-skip / rdpenalty=0 / psy-rd=2.00 / psy-rdoq=0.00 / no-rd-refine / no-lossless / cbqpoffs=0 / crqpoffs=0 / rc=crf / crf=18.0 / qcomp=0.60 / qpstep=4 / stats-write=0 / stats-read=0 / vbv-maxrate=160000 / vbv-bufsize=160000 / vbv-init=0.9 / crf-max=0.0 / crf-min=0.0 / ipratio=1.40 / pbratio=1.30 / aq-mode=1 / aq-strength=0.00 / cutree / zone-count=0 / no-strict-cbr / qg-size=32 / no-rc-grain / qpmax=69 / qpmin=0 / no-const-vbv / sar=0 / overscan=0 / videoformat=5 / range=0 / colorprim=9 / transfer=16 / colormatrix=9 / chromaloc=0 / display-window=0 / master-display=G(13250,34500)B(7500,3000)R(34000,16000)WP (15635,16450)L(10000000,50) / max-cll=0,0 / min-luma=0 / max-luma=1023 / log2-max-poc-lsb=8 / vui-timing-info / vui-hrd-info / slices=1 / no-opt-qp-pps / no-opt-ref-list-length-pps / no-multi-pass-opt-rps / scenecut-bias=0.05 / no-opt-cu-delta-qp / no-aq-motion / hdr / no-hdr-opt / no-dhdr10-opt / no-idr-recovery-sei / analysis-reuse-level=5 / scale-factor=0 / refine-intra=0 / refine-inter=0 / refine-mv=0 / no-limit-sao / ctu-info=0 / no-lowpass-dct / refine-mv-type=0 / copy-pic=1 / max-ausize-factor=1.0 / no-dynamic-refine / no-single-sei
    Language : English
    Default : Yes
    Forced : No
    Color range : Limited
    Color primaries : BT.2020
    Transfer characteristics : PQ
    Matrix coefficients : BT.2020 non-constant
    Mastering display color primaries : Display P3
    Mastering display luminance : min: 0.0050 cd/m2, max: 1000 cd/m2

    Audio #1
    ID : 2
    Format : MLP FBA 16-ch
    Format/Info : Meridian Lossless Packing FBA with 16-channel presentation
    Commercial name : Dolby TrueHD with Dolby Atmos
    Codec ID : A_TRUEHD
    Duration : 2 h 21 min
    Bit rate mode : Variable
    Bit rate : 4 443 kb/s
    Maximum bit rate : 8 373 kb/s
    Channel(s) : 8 channels
    Channel layout : L R C LFE Ls Rs Lb Rb
    Sampling rate : 48.0 kHz
    Frame rate : 1 200.000 FPS (40 SPF)
    Compression mode : Lossless
    Delay relative to video : 32 ms
    Stream size : 4.40 GiB (40%)
    Language : English
    Default : No
    Forced : No
    Number of dynamic objects : 13
    Bed channel count : 1 channel
    Bed channel configuration : LFE

    Audio #2
    ID : 3
    Format : DTS
    Format/Info : Digital Theater Systems
    Codec ID : A_DTS
    Duration : 2 h 21 min
    Bit rate mode : Constant
    Bit rate : 755 kb/s
    Channel(s) : 6 channels
    Channel layout : C L R Ls Rs LFE
    Sampling rate : 48.0 kHz
    Frame rate : 93.750 FPS (512 SPF)
    Bit depth : 24 bits
    Compression mode : Lossy
    Stream size : 764 MiB (7%)
    Language : English
    Default : No
    Forced : No

    Audio #3
    ID : 4
    Format : AC-3
    Format/Info : Audio Coding 3
    Commercial name : Dolby Digital
    Codec ID : A_AC3
    Duration : 2 h 21 min
    Bit rate mode : Constant
    Bit rate : 640 kb/s
    Channel(s) : 6 channels
    Channel layout : L R C LFE Ls Rs
    Sampling rate : 48.0 kHz
    Frame rate : 31.250 FPS (1536 SPF)
    Bit depth : 16 bits
    Compression mode : Lossy
    Delay relative to video : 32 ms
    Stream size : 648 MiB (6%)
    Language : English
    Service kind : Complete Main
    Default : No
    Forced : No

    Audio #4
    ID : 5
    Format : AC-3
    Format/Info : Audio Coding 3
    Commercial name : Dolby Digital
    Codec ID : A_AC3
    Duration : 2 h 21 min
    Bit rate mode : Constant
    Bit rate : 448 kb/s
    Channel(s) : 6 channels
    Channel layout : L R C LFE Ls Rs
    Sampling rate : 48.0 kHz
    Frame rate : 31.250 FPS (1536 SPF)
    Bit depth : 16 bits
    Compression mode : Lossy
    Stream size : 454 MiB (4%)
    Language : Thai
    Service kind : Complete Main
    Default : Yes
    Forced : Yes

    Text #1
    ID : 6
    Format : VobSub
    Muxing mode : zlib
    Codec ID : S_VOBSUB
    Codec ID/Info : Picture based subtitle format used on DVDs
    Duration : 2 h 18 min
    Bit rate : 7 082 b/s
    Count of elements : 1712
    Stream size : 7.03 MiB (0%)
    Language : English
    Default : No
    Forced : No

    Text #2
    ID : 7
    Format : UTF-8
    Codec ID : S_TEXT/UTF8
    Codec ID/Info : UTF-8 Plain Text
    Duration : 2 h 18 min
    Bit rate : 45 b/s
    Count of elements : 1712
    Stream size : 46.3 KiB (0%)
    Language : English
    Default : No
    Forced : No

    Text #3
    ID : 8
    Format : PGS
    Muxing mode : zlib
    Codec ID : S_HDMV/PGS
    Codec ID/Info : Picture based subtitle format used on BDs/HD-DVDs
    Duration : 2 h 18 min
    Bit rate : 24.5 kb/s
    Count of elements : 3424
    Stream size : 24.3 MiB (0%)
    Language : English
    Default : No
    Forced : No

    Text #4
    ID : 9
    Format : PGS
    Muxing mode : zlib
    Codec ID : S_HDMV/PGS
    Codec ID/Info : Picture based subtitle format used on BDs/HD-DVDs
    Duration : 2 h 18 min
    Bit rate : 24.5 kb/s
    Count of elements : 3424
    Stream size : 24.3 MiB (0%)
    Language : English
    Default : Yes
    Forced : Yes

    Text #5
    ID : 10
    Format : PGS
    Muxing mode : zlib
    Codec ID : S_HDMV/PGS
    Codec ID/Info : Picture based subtitle format used on BDs/HD-DVDs
    Duration : 2 h 18 min
    Bit rate : 29.4 kb/s
    Count of elements : 3422
    Stream size : 29.0 MiB (0%)
    Language : English
    Default : No
    Forced : No

    Text #6
    ID : 11
    Format : VobSub
    Muxing mode : zlib
    Codec ID : S_VOBSUB
    Codec ID/Info : Picture based subtitle format used on DVDs
    Duration : 2 h 21 min
    Bit rate : 5 069 b/s
    Count of elements : 1333
    Stream size : 5.13 MiB (0%)
    Language : Thai
    Default : No
    Forced : No

    Text #7
    ID : 12
    Format : UTF-8
    Codec ID : S_TEXT/UTF8
    Codec ID/Info : UTF-8 Plain Text
    Duration : 2 h 21 min
    Bit rate : 83 b/s
    Count of elements : 1333
    Stream size : 86.3 KiB (0%)
    Language : Thai
    Default : No
    Forced : No

    Text #8
    ID : 13
    Format : PGS
    Muxing mode : zlib
    Codec ID : S_HDMV/PGS
    Codec ID/Info : Picture based subtitle format used on BDs/HD-DVDs
    Duration : 2 h 21 min
    Bit rate : 21.1 kb/s
    Count of elements : 2666
    Stream size : 21.3 MiB (0%)
    Language : Thai
    Default : No
    Forced : No

    Text #9
    ID : 14
    Format : PGS
    Muxing mode : zlib
    Codec ID : S_HDMV/PGS
    Codec ID/Info : Picture based subtitle format used on BDs/HD-DVDs
    Duration : 2 h 21 min
    Bit rate : 21.1 kb/s
    Count of elements : 2666
    Stream size : 21.3 MiB (0%)
    Language : Thai
    Default : No
    Forced : No



    Download: cornfile
    http://cornfile.com/gwgt8xrkwrty
    Download: mekafile
    http://www.mekafile.com/dl.php?f=YG0447bOXf4W

  2. The Following 2 Users Say Thank You to Duckload.us For This Useful Post:

    apichartdear (02-27-2019), beerdum (01-27-2019)

+ Reply to Thread

Thread Information

Users Browsing this Thread

There are currently 1 users browsing this thread. (0 members and 1 guests)

     

Posting Permissions

  • You may not post new threads
  • You may not post replies
  • You may not post attachments
  • You may not edit your posts