+ Reply to Thread
Results 1 to 6 of 6
  1. #1
    Administrators Duckload.us's Avatar
    Join Date
    Dec 2010
    Posts
    103,441
    Thanks
    9
    Thanked 106,332 Times in 50,348 Posts

    Cool []-[Netflix] Sex Education Season1 (2019) ֡ (ѡٵѡ) [Complete]-WEB-DL.H.264.1080p. [Master]-[Soundtrack ]



    ͷ˹ش촷ҴҴͧͧ ֡繹ѡӺѴ ͹ʹµ駤ԹԡӺѴҧ ç¹


    General
    Unique ID : 112808992312056007407143934504415751801 (0x54DE38BCAD804724FE958C317CFB6E79)
    Complete name : C:UsersAdministratorDownloadstorrentSex Education SS1[իѹ 1.Ep1] ֡ (ѡٵѡ) - ͹ 1.mkv
    Format : Matroska
    Format version : Version 4
    File size : 2.12 GiB
    Duration : 52 min 6 s
    Overall bit rate : 5 838 kb/s
    Encoded date : UTC 2019-01-11 12:26:12
    Writing application : mkvmerge v30.1.0 ( Forever And More ) 64-bit
    Writing library : libebml v1.3.6 + libmatroska v1.4.9

    Video
    ID : 1
    Format : AVC
    Format/Info : Advanced Video Codec
    Format profile : [email protected]
    Format settings : CABAC / 3 Ref Frames
    Format settings, CABAC : Yes
    Format settings, RefFrames : 3 frames
    Codec ID : V_MPEG4/ISO/AVC
    Duration : 52 min 6 s
    Bit rate : 5 442 kb/s
    Width : 1 920 pixels
    Height : 1 080 pixels
    Display aspect ratio : 16:9
    Frame rate mode : Constant
    Frame rate : 25.000 FPS
    Color space : YUV
    Chroma subsampling : 4:2:0
    Bit depth : 8 bits
    Scan type : Progressive
    Bits/(Pixel*Frame) : 0.105
    Stream size : 1.98 GiB (93%)
    Default : Yes
    Forced : No

    Audio
    ID : 2
    Format : AC-3
    Format/Info : Audio Coding 3
    Commercial name : Dolby Digital
    Codec ID : A_AC3
    Duration : 52 min 6 s
    Bit rate mode : Constant
    Bit rate : 384 kb/s
    Channel(s) : 6 channels
    Channel layout : L R C LFE Ls Rs
    Sampling rate : 48.0 kHz
    Frame rate : 31.250 FPS (1536 SPF)
    Bit depth : 16 bits
    Compression mode : Lossy
    Delay relative to video : -40 ms
    Stream size : 143 MiB (7%)
    Title : eng5.1
    Language : English
    Service kind : Complete Main
    Default : Yes
    Forced : No

    Text
    ID : 3
    Format : PGS
    Muxing mode : zlib
    Codec ID : S_HDMV/PGS
    Codec ID/Info : Picture based subtitle format used on BDs/HD-DVDs
    Duration : 50 min 54 s
    Bit rate : 23.6 kb/s
    Count of elements : 1492
    Stream size : 8.61 MiB (0%)
    Title : thai
    Language : Thai
    Default : Yes
    Forced : No







    Download: filecondo
    1
    http://www.filecondo.com/dl.php?f=L8c9fb1GIUYW
    2
    http://www.filecondo.com/dl.php?f=F54b091GIV0P
    3
    http://www.filecondo.com/dl.php?f=g7b36e1GIV2J
    4
    http://www.filecondo.com/dl.php?f=O9a9641GIV4I
    5
    http://www.filecondo.com/dl.php?f=vdaf9d1GIV6B
    6
    http://www.filecondo.com/dl.php?f=v956aa1GIV8x
    7
    http://www.filecondo.com/dl.php?f=U5a58b1HC5ST fix
    8
    http://www.filecondo.com/dl.php?f=hd45171HC5TW fix

    Download: cornfile
    [իѹ 1.Ep1] ֡ (ѡٵѡ) - ͹ 1.mkv - 2.1 GB
    [իѹ 1.Ep2] ֡ (ѡٵѡ) - ͹ 2.mkv - 1.7 GB
    [իѹ 1.Ep3] ֡ (ѡٵѡ) - ͹ 3.mkv - 1.6 GB
    [իѹ 1.Ep4] ֡ (ѡٵѡ) - ͹ 4.mkv - 1.8 GB
    [իѹ 1.Ep5] ֡ (ѡٵѡ) - ͹ 5.mkv - 1.4 GB
    [իѹ 1.Ep6] ֡ (ѡٵѡ) - ͹ 6.mkv - 1.5 GB
    [իѹ 1.Ep7] ֡ (ѡٵѡ) - ͹ 7.mkv - 1.5 GB
    [իѹ 1.Ep8] ֡ (ѡٵѡ) - ͹ 8.mkv - 1.6 GB

    Download: mekafile
    1
    http://www.mekafile.com/dl.php?f=i1e3ffbP4X69
    2
    http://www.mekafile.com/dl.php?f=Mqd8bebP4WZ9
    3
    http://www.mekafile.com/dl.php?f=Ec4971bP4WSg
    4
    http://www.mekafile.com/dl.php?f=8b4931bP4Xqm
    5
    http://www.mekafile.com/dl.php?f=z6efabbP4Xjf
    6
    http://www.mekafile.com/dl.php?f=GNebf0bP4XcA
    7
    http://www.mekafile.com/dl.php?f=hwb9cabP4XDz
    8
    http://www.mekafile.com/dl.php?f=AXbb60bP4XwU

  2. The Following 5 Users Say Thank You to Duckload.us For This Useful Post:

    beer181235 (02-24-2019), gaszolineskywalker (03-25-2019), JOMMY_2 (04-13-2019), Sazabi (01-30-2019), Sherlock (01-14-2019)

  3. #2
    Senior Member
    Join Date
    Jun 2014
    Posts
    564
    Thanks
    0
    Thanked 0 Times in 0 Posts
    ͺسѺ

  4. #3
    Junior Member
    Join Date
    Apr 2015
    Posts
    2
    Thanks
    0
    Thanked 0 Times in 0 Posts
    ͺسѺ

  5. #4
    Senior Member
    Join Date
    Jan 2013
    Posts
    663
    Thanks
    663
    Thanked 0 Times in 0 Posts
    ͺسҡѺ

  6. #5
    Senior Member
    Join Date
    Jan 2013
    Posts
    663
    Thanks
    663
    Thanked 0 Times in 0 Posts
    ͺسҡѺ

  7. #6
    Senior Member
    Join Date
    Oct 2012
    Posts
    584
    Thanks
    1,504
    Thanked 0 Times in 0 Posts
    ͺسѺ

Thread Information

Users Browsing this Thread

There are currently 1 users browsing this thread. (0 members and 1 guests)

     

Posting Permissions

  • You may not post new threads
  • You may not post replies
  • You may not post attachments
  • You may not edit your posts